<?xml version="1.0" standalone="no"?>
<!DOCTYPE svg PUBLIC "-//W3C//DTD SVG 1.1//EN" "http://www.w3.org/Graphics/SVG/1.1/DTD/svg11.dtd" >
<svg xmlns="http://www.w3.org/2000/svg" xmlns:xlink="http://www.w3.org/1999/xlink" version="1.1">
<metadata>
Created by FontForge 20200427 at Tue May  1 08:08:08 2018
 By www
(c) 2015-2017 Apple Inc. All rights reserved.
</metadata>
<defs>
<font id="SFProDisplay-Regular" horiz-adv-x="1680" >
  <font-face 
    font-family="SF Pro Display"
    font-weight="400"
    font-stretch="normal"
    units-per-em="2048"
    panose-1="0 0 5 0 0 0 0 0 0 0"
    ascent="1638"
    descent="-410"
    x-height="1040"
    cap-height="1443"
    bbox="-439 -494 2554 2200"
    underline-thickness="120"
    underline-position="-370"
    unicode-range="U+0020-1F189"
  />
<missing-glyph horiz-adv-x="2048" 
d="M99 -494v284h1848v-284h-1848zM99 -62v284h1848v-284h-1848zM99 370v284h1848v-284h-1848zM99 802v284h1848v-284h-1848zM99 1234v284h1848v-284h-1848zM99 1666v284h1848v-284h-1848z" />
    <glyph glyph-name="uni2780" unicode="&#x31;&#x20dd;" 
d="M938 388h-130v571h-6l-166 -114v117l172 119h130v-693zM839 78q107 0 203 32.5t175 91.5t136.5 139t89 176.5t31.5 202.5t-31.5 202.5t-89 176.5t-136.5 139t-175 91.5t-203 32.5t-203 -32.5t-175 -91.5t-136.5 -139t-89 -176.5t-31.5 -202.5t31.5 -202.5t89 -176.5
t136.5 -139t175 -91.5t203 -32.5zM839 -50q-127 0 -242.5 39t-212 110t-167.5 167.5t-110 212t-39 242.5t39 242.5t110 212t167.5 167.5t212 110t242.5 39t242.5 -39t212 -110t167.5 -167.5t110 -212t39 -242.5t-39 -242.5t-110 -212t-167.5 -167.5t-212 -110t-242.5 -39z
" />
    <glyph glyph-name="uni2781" unicode="&#x32;&#x20dd;" 
d="M721 878h-124v6q0 52 26.5 100.5t80.5 79t136 30.5q73 0 127 -25.5t84 -69t30 -98.5q0 -46 -18 -83t-47 -69.5t-61 -66.5l-174 -185v-6h313v-103h-492v77l268 280q30 31 56 66t26 79q0 46 -32.5 74.5t-81.5 28.5q-56 0 -86.5 -32.5t-30.5 -76.5v-3.5v-2.5zM839 78
q107 0 203 32.5t175 91.5t136.5 139t89 176.5t31.5 202.5t-31.5 202.5t-89 176.5t-136.5 139t-175 91.5t-203 32.5t-203 -32.5t-175 -91.5t-136.5 -139t-89 -176.5t-31.5 -202.5t31.5 -202.5t89 -176.5t136.5 -139t175 -91.5t203 -32.5zM839 -50q-127 0 -242.5 39t-212 110
t-167.5 167.5t-110 212t-39 242.5t39 242.5t110 212t167.5 167.5t212 110t242.5 39t242.5 -39t212 -110t167.5 -167.5t110 -212t39 -242.5t-39 -242.5t-110 -212t-167.5 -167.5t-212 -110t-242.5 -39z" />
    <glyph glyph-name="uni2782" unicode="&#x33;&#x20dd;" 
d="M759 696v98h77q51 0 84.5 29.5t33.5 73.5q-1 43 -34 71t-84 28q-53 0 -85 -27t-34 -62h-122q2 51 30.5 93.5t82 68t131.5 25.5q74 0 128 -23.5t84 -64t32 -91.5q1 -49 -22 -83.5t-54.5 -54t-58.5 -23.5v-6q33 -4 69 -22t61.5 -53.5t26.5 -91.5q1 -64 -35.5 -110t-98 -71
t-136.5 -25q-80 0 -136 25.5t-86.5 68t-32.5 94.5h120q4 -38 41.5 -63.5t94.5 -26.5q63 0 101.5 32t38.5 81q-1 48 -38 79t-98 31h-81zM839 78q107 0 203 32.5t175 91.5t136.5 139t89 176.5t31.5 202.5t-31.5 202.5t-89 176.5t-136.5 139t-175 91.5t-203 32.5t-203 -32.5
t-175 -91.5t-136.5 -139t-89 -176.5t-31.5 -202.5t31.5 -202.5t89 -176.5t136.5 -139t175 -91.5t203 -32.5zM839 -50q-127 0 -242.5 39t-212 110t-167.5 167.5t-110 212t-39 242.5t39 242.5t110 212t167.5 167.5t212 110t242.5 39t242.5 -39t212 -110t167.5 -167.5t110 -212
t39 -242.5t-39 -242.5t-110 -212t-167.5 -167.5t-212 -110t-242.5 -39z" />
    <glyph glyph-name="uni2783" unicode="&#x34;&#x20dd;" 
d="M814 1081h189v-458h91v-102h-91v-133h-123v133h-352v103q65 115 139 229t147 228zM649 623h231v361h-6q-58 -85 -116 -176t-109 -181v-4zM839 78q107 0 203 32.5t175 91.5t136.5 139t89 176.5t31.5 202.5t-31.5 202.5t-89 176.5t-136.5 139t-175 91.5t-203 32.5
t-203 -32.5t-175 -91.5t-136.5 -139t-89 -176.5t-31.5 -202.5t31.5 -202.5t89 -176.5t136.5 -139t175 -91.5t203 -32.5zM839 -50q-127 0 -242.5 39t-212 110t-167.5 167.5t-110 212t-39 242.5t39 242.5t110 212t167.5 167.5t212 110t242.5 39t242.5 -39t212 -110
t167.5 -167.5t110 -212t39 -242.5t-39 -242.5t-110 -212t-167.5 -167.5t-212 -110t-242.5 -39z" />
    <glyph glyph-name="uni2784" unicode="&#x35;&#x20dd;" 
d="M591 562h121q9 -45 48.5 -66t86.5 -21q35 0 66.5 16.5t51.5 48t20 76.5q0 40 -19 69.5t-51 45.5t-69 16q-51 0 -82.5 -22.5t-43.5 -45.5h-114l32 402h434v-102h-329l-17 -195h6q7 11 26.5 25t49.5 24.5t71 10.5q63 0 116 -26.5t85 -77t32 -121.5q0 -73 -34 -128
t-94.5 -85.5t-141.5 -30.5q-73 0 -128.5 24.5t-87.5 67t-35 95.5zM839 78q107 0 203 32.5t175 91.5t136.5 139t89 176.5t31.5 202.5t-31.5 202.5t-89 176.5t-136.5 139t-175 91.5t-203 32.5t-203 -32.5t-175 -91.5t-136.5 -139t-89 -176.5t-31.5 -202.5t31.5 -202.5
t89 -176.5t136.5 -139t175 -91.5t203 -32.5zM839 -50q-127 0 -242.5 39t-212 110t-167.5 167.5t-110 212t-39 242.5t39 242.5t110 212t167.5 167.5t212 110t242.5 39t242.5 -39t212 -110t167.5 -167.5t110 -212t39 -242.5t-39 -242.5t-110 -212t-167.5 -167.5t-212 -110
t-242.5 -39z" />
    <glyph glyph-name="uni2785" unicode="&#x36;&#x20dd;" 
d="M868 386q-82 0 -150 38.5t-108.5 117t-40.5 199.5q0 115 36 197.5t103.5 126.5t161.5 44q69 0 124.5 -24t92 -67t47.5 -100h-134q-14 38 -48 59.5t-83 21.5q-83 0 -126 -68.5t-43 -185.5h2q22 48 74.5 80t127.5 32q71 0 125 -29.5t84.5 -80.5t30.5 -116
q0 -71 -35.5 -126.5t-98 -87t-142.5 -31.5zM866 497q41 0 73.5 17t52 46t19.5 65q0 56 -40.5 92t-102.5 36q-63 0 -104.5 -35t-41.5 -90q0 -37 19 -66.5t51.5 -47t73.5 -17.5zM839 78q107 0 203 32.5t175 91.5t136.5 139t89 176.5t31.5 202.5t-31.5 202.5t-89 176.5
t-136.5 139t-175 91.5t-203 32.5t-203 -32.5t-175 -91.5t-136.5 -139t-89 -176.5t-31.5 -202.5t31.5 -202.5t89 -176.5t136.5 -139t175 -91.5t203 -32.5zM839 -50q-127 0 -242.5 39t-212 110t-167.5 167.5t-110 212t-39 242.5t39 242.5t110 212t167.5 167.5t212 110
t242.5 39t242.5 -39t212 -110t167.5 -167.5t110 -212t39 -242.5t-39 -242.5t-110 -212t-167.5 -167.5t-212 -110t-242.5 -39z" />
    <glyph glyph-name="uni2786" unicode="&#x37;&#x20dd;" 
d="M611 1071h491v-105l-296 -588h-137l301 584v6h-359v103zM839 78q107 0 203 32.5t175 91.5t136.5 139t89 176.5t31.5 202.5t-31.5 202.5t-89 176.5t-136.5 139t-175 91.5t-203 32.5t-203 -32.5t-175 -91.5t-136.5 -139t-89 -176.5t-31.5 -202.5t31.5 -202.5t89 -176.5
t136.5 -139t175 -91.5t203 -32.5zM839 -50q-127 0 -242.5 39t-212 110t-167.5 167.5t-110 212t-39 242.5t39 242.5t110 212t167.5 167.5t212 110t242.5 39t242.5 -39t212 -110t167.5 -167.5t110 -212t39 -242.5t-39 -242.5t-110 -212t-167.5 -167.5t-212 -110t-242.5 -39z
" />
    <glyph glyph-name="uni2787" unicode="&#x38;&#x20dd;" 
d="M839 467q63 0 104 33.5t41 85.5t-40.5 85.5t-104.5 33.5t-105 -34t-41 -85q0 -52 41 -85.5t105 -33.5zM839 793q53 0 87 29.5t34 75.5t-34 74.5t-87 28.5t-87 -28.5t-34 -74.5t34 -75.5t87 -29.5zM837 375q-82 0 -143 25.5t-95.5 71t-34.5 106.5q0 64 41.5 112t109.5 61
v5q-57 18 -89.5 59t-32.5 96q0 53 31.5 94.5t87 65t127.5 23.5t127.5 -23.5t87 -65t31.5 -94.5q0 -55 -33 -97t-89 -58v-5q68 -13 109.5 -60.5t41.5 -111.5q0 -61 -35 -107t-97.5 -71.5t-144.5 -25.5zM839 78q107 0 203 32.5t175 91.5t136.5 139t89 176.5t31.5 202.5
t-31.5 202.5t-89 176.5t-136.5 139t-175 91.5t-203 32.5t-203 -32.5t-175 -91.5t-136.5 -139t-89 -176.5t-31.5 -202.5t31.5 -202.5t89 -176.5t136.5 -139t175 -91.5t203 -32.5zM839 -50q-127 0 -242.5 39t-212 110t-167.5 167.5t-110 212t-39 242.5t39 242.5t110 212
t167.5 167.5t212 110t242.5 39t242.5 -39t212 -110t167.5 -167.5t110 -212t39 -242.5t-39 -242.5t-110 -212t-167.5 -167.5t-212 -110t-242.5 -39z" />
    <glyph glyph-name="uni2788" unicode="&#x39;&#x20dd;" 
d="M844 386q-69 0 -126 24t-93.5 66.5t-46.5 98.5h134q13 -38 48 -58.5t85 -20.5q86 0 127.5 70t41.5 185h-2q-21 -50 -74 -81.5t-125 -31.5q-68 0 -123.5 28.5t-88 80t-32.5 118.5q0 71 36 126t98.5 86.5t142.5 31.5q57 0 110.5 -20t96 -62t67 -109.5t24.5 -163.5
q0 -115 -36 -197.5t-103 -126.5t-161 -44zM846 742q63 0 104.5 35.5t41.5 90.5q0 36 -19 65.5t-52 47t-74 17.5q-40 0 -73 -17t-52.5 -46t-19.5 -65q0 -56 41.5 -92t102.5 -36zM839 78q107 0 203 32.5t175 91.5t136.5 139t89 176.5t31.5 202.5t-31.5 202.5t-89 176.5
t-136.5 139t-175 91.5t-203 32.5t-203 -32.5t-175 -91.5t-136.5 -139t-89 -176.5t-31.5 -202.5t31.5 -202.5t89 -176.5t136.5 -139t175 -91.5t203 -32.5zM839 -50q-127 0 -242.5 39t-212 110t-167.5 167.5t-110 212t-39 242.5t39 242.5t110 212t167.5 167.5t212 110
t242.5 39t242.5 -39t212 -110t167.5 -167.5t110 -212t39 -242.5t-39 -242.5t-110 -212t-167.5 -167.5t-212 -110t-242.5 -39z" />
    <glyph glyph-name="uni24B6" unicode="A&#x20dd;" 
d="M739 688h200l-95 287h-10zM649 408h-132l248 693h148l248 -693h-132l-62 186h-256zM839 78q107 0 203 32.5t175 91.5t136.5 139t89 176.5t31.5 202.5t-31.5 202.5t-89 176.5t-136.5 139t-175 91.5t-203 32.5t-203 -32.5t-175 -91.5t-136.5 -139t-89 -176.5t-31.5 -202.5
t31.5 -202.5t89 -176.5t136.5 -139t175 -91.5t203 -32.5zM839 -50q-127 0 -242.5 39t-212 110t-167.5 167.5t-110 212t-39 242.5t39 242.5t110 212t167.5 167.5t212 110t242.5 39t242.5 -39t212 -110t167.5 -167.5t110 -212t39 -242.5t-39 -242.5t-110 -212t-167.5 -167.5
t-212 -110t-242.5 -39z" />
    <glyph glyph-name="uni24B7" unicode="B&#x20dd;" 
d="M602 388v693h294q97 0 154 -45.5t57 -125.5q0 -62 -34 -100t-88 -52v-5q68 -7 114.5 -50t46.5 -120q0 -61 -32 -105t-89 -67t-132 -23h-291zM731 984v-194h98q78 0 114 25t36 74q0 44 -29 69.5t-82 25.5h-137zM731 700v-215h111q91 0 131 25.5t40 78.5q0 52 -35 81.5
t-101 29.5h-146zM839 78q107 0 203 32.5t175 91.5t136.5 139t89 176.5t31.5 202.5t-31.5 202.5t-89 176.5t-136.5 139t-175 91.5t-203 32.5t-203 -32.5t-175 -91.5t-136.5 -139t-89 -176.5t-31.5 -202.5t31.5 -202.5t89 -176.5t136.5 -139t175 -91.5t203 -32.5zM839 -50
q-127 0 -242.5 39t-212 110t-167.5 167.5t-110 212t-39 242.5t39 242.5t110 212t167.5 167.5t212 110t242.5 39t242.5 -39t212 -110t167.5 -167.5t110 -212t39 -242.5t-39 -242.5t-110 -212t-167.5 -167.5t-212 -110t-242.5 -39z" />
    <glyph glyph-name="uni24B8" unicode="C&#x20dd;" 
d="M1007 606h132q-10 -70 -50.5 -121.5t-105 -80.5t-146.5 -29q-97 0 -170 45t-113.5 126t-40.5 188t40.5 188t113.5 126.5t170 45.5q84 0 149 -30t105 -84t50 -126h-130q-8 59 -56 97t-116 38q-58 0 -102 -32t-68 -89.5t-24 -133.5t24 -133.5t68 -89t102 -31.5
q65 0 112.5 35.5t55.5 90.5zM839 78q107 0 203 32.5t175 91.5t136.5 139t89 176.5t31.5 202.5t-31.5 202.5t-89 176.5t-136.5 139t-175 91.5t-203 32.5t-203 -32.5t-175 -91.5t-136.5 -139t-89 -176.5t-31.5 -202.5t31.5 -202.5t89 -176.5t136.5 -139t175 -91.5t203 -32.5z
M839 -50q-127 0 -242.5 39t-212 110t-167.5 167.5t-110 212t-39 242.5t39 242.5t110 212t167.5 167.5t212 110t242.5 39t242.5 -39t212 -110t167.5 -167.5t110 -212t39 -242.5t-39 -242.5t-110 -212t-167.5 -167.5t-212 -110t-242.5 -39z" />
    <glyph glyph-name="uni24B9" unicode="D&#x20dd;" 
d="M595 1081h256q164 0 243.5 -89.5t79.5 -255.5t-80 -257t-243 -91h-256v693zM725 978v-487h110q105 0 155 60.5t50 182.5t-50 183t-155 61h-110zM839 78q107 0 203 32.5t175 91.5t136.5 139t89 176.5t31.5 202.5t-31.5 202.5t-89 176.5t-136.5 139t-175 91.5t-203 32.5
t-203 -32.5t-175 -91.5t-136.5 -139t-89 -176.5t-31.5 -202.5t31.5 -202.5t89 -176.5t136.5 -139t175 -91.5t203 -32.5zM839 -50q-127 0 -242.5 39t-212 110t-167.5 167.5t-110 212t-39 242.5t39 242.5t110 212t167.5 167.5t212 110t242.5 39t242.5 -39t212 -110
t167.5 -167.5t110 -212t39 -242.5t-39 -242.5t-110 -212t-167.5 -167.5t-212 -110t-242.5 -39z" />
    <glyph glyph-name="uni24BA" unicode="E&#x20dd;" 
d="M1074 491v-103h-459v693h459v-103h-330v-190h311v-98h-311v-199h330zM839 78q107 0 203 32.5t175 91.5t136.5 139t89 176.5t31.5 202.5t-31.5 202.5t-89 176.5t-136.5 139t-175 91.5t-203 32.5t-203 -32.5t-175 -91.5t-136.5 -139t-89 -176.5t-31.5 -202.5t31.5 -202.5
t89 -176.5t136.5 -139t175 -91.5t203 -32.5zM839 -50q-127 0 -242.5 39t-212 110t-167.5 167.5t-110 212t-39 242.5t39 242.5t110 212t167.5 167.5t212 110t242.5 39t242.5 -39t212 -110t167.5 -167.5t110 -212t39 -242.5t-39 -242.5t-110 -212t-167.5 -167.5t-212 -110
t-242.5 -39z" />
    <glyph glyph-name="uni24BB" unicode="F&#x20dd;" 
d="M777 388h-131v693h454v-104h-323v-205h295v-102h-295v-282zM839 78q107 0 203 32.5t175 91.5t136.5 139t89 176.5t31.5 202.5t-31.5 202.5t-89 176.5t-136.5 139t-175 91.5t-203 32.5t-203 -32.5t-175 -91.5t-136.5 -139t-89 -176.5t-31.5 -202.5t31.5 -202.5t89 -176.5
t136.5 -139t175 -91.5t203 -32.5zM839 -50q-127 0 -242.5 39t-212 110t-167.5 167.5t-110 212t-39 242.5t39 242.5t110 212t167.5 167.5t212 110t242.5 39t242.5 -39t212 -110t167.5 -167.5t110 -212t39 -242.5t-39 -242.5t-110 -212t-167.5 -167.5t-212 -110t-242.5 -39z
" />
    <glyph glyph-name="uni24BC" unicode="G&#x20dd;" 
d="M1010 604v57h-160v95h284v-122q0 -76 -33.5 -134t-99 -91.5t-162.5 -33.5t-170.5 45t-114.5 126t-41 188t41 188t114.5 126.5t170.5 45.5q81 0 145.5 -29t105 -80.5t49.5 -120.5h-130q-6 36 -29.5 64t-59.5 44.5t-79 16.5q-60 0 -104 -31.5t-68 -88.5t-24 -135
q0 -77 24 -134t68 -88.5t104 -31.5q82 0 125.5 34.5t43.5 89.5zM839 78q107 0 203 32.5t175 91.5t136.5 139t89 176.5t31.5 202.5t-31.5 202.5t-89 176.5t-136.5 139t-175 91.5t-203 32.5t-203 -32.5t-175 -91.5t-136.5 -139t-89 -176.5t-31.5 -202.5t31.5 -202.5t89 -176.5
t136.5 -139t175 -91.5t203 -32.5zM839 -50q-127 0 -242.5 39t-212 110t-167.5 167.5t-110 212t-39 242.5t39 242.5t110 212t167.5 167.5t212 110t242.5 39t242.5 -39t212 -110t167.5 -167.5t110 -212t39 -242.5t-39 -242.5t-110 -212t-167.5 -167.5t-212 -110t-242.5 -39z
" />
    <glyph glyph-name="uni24BD" unicode="H&#x20dd;" 
d="M1130 388h-130v304h-321v-304h-130v693h130v-286h321v286h130v-693zM839 78q107 0 203 32.5t175 91.5t136.5 139t89 176.5t31.5 202.5t-31.5 202.5t-89 176.5t-136.5 139t-175 91.5t-203 32.5t-203 -32.5t-175 -91.5t-136.5 -139t-89 -176.5t-31.5 -202.5t31.5 -202.5
t89 -176.5t136.5 -139t175 -91.5t203 -32.5zM839 -50q-127 0 -242.5 39t-212 110t-167.5 167.5t-110 212t-39 242.5t39 242.5t110 212t167.5 167.5t212 110t242.5 39t242.5 -39t212 -110t167.5 -167.5t110 -212t39 -242.5t-39 -242.5t-110 -212t-167.5 -167.5t-212 -110
t-242.5 -39z" />
    <glyph glyph-name="uni24BE" unicode="I&#x20dd;" 
d="M905 388h-132v693h132v-693zM839 78q107 0 203 32.5t175 91.5t136.5 139t89 176.5t31.5 202.5t-31.5 202.5t-89 176.5t-136.5 139t-175 91.5t-203 32.5t-203 -32.5t-175 -91.5t-136.5 -139t-89 -176.5t-31.5 -202.5t31.5 -202.5t89 -176.5t136.5 -139t175 -91.5
t203 -32.5zM839 -50q-127 0 -242.5 39t-212 110t-167.5 167.5t-110 212t-39 242.5t39 242.5t110 212t167.5 167.5t212 110t242.5 39t242.5 -39t212 -110t167.5 -167.5t110 -212t39 -242.5t-39 -242.5t-110 -212t-167.5 -167.5t-212 -110t-242.5 -39z" />
    <glyph glyph-name="uni24BF" unicode="J&#x20dd;" 
d="M575 576h126q1 -40 28.5 -65.5t71.5 -25.5q53 0 80 30t27 85v481h130v-477q0 -111 -63 -170t-173 -59q-74 0 -124.5 27t-76.5 72.5t-26 101.5zM839 78q107 0 203 32.5t175 91.5t136.5 139t89 176.5t31.5 202.5t-31.5 202.5t-89 176.5t-136.5 139t-175 91.5t-203 32.5
t-203 -32.5t-175 -91.5t-136.5 -139t-89 -176.5t-31.5 -202.5t31.5 -202.5t89 -176.5t136.5 -139t175 -91.5t203 -32.5zM839 -50q-127 0 -242.5 39t-212 110t-167.5 167.5t-110 212t-39 242.5t39 242.5t110 212t167.5 167.5t212 110t242.5 39t242.5 -39t212 -110
t167.5 -167.5t110 -212t39 -242.5t-39 -242.5t-110 -212t-167.5 -167.5t-212 -110t-242.5 -39z" />
    <glyph glyph-name="uni24C0" unicode="&#x212a;&#x20dd;" 
d="M1154 1081l-263 -297l274 -396h-158l-212 312l-78 -84v-228h-130v693h130v-317h5l287 317h145zM839 78q107 0 203 32.5t175 91.5t136.5 139t89 176.5t31.5 202.5t-31.5 202.5t-89 176.5t-136.5 139t-175 91.5t-203 32.5t-203 -32.5t-175 -91.5t-136.5 -139t-89 -176.5
t-31.5 -202.5t31.5 -202.5t89 -176.5t136.5 -139t175 -91.5t203 -32.5zM839 -50q-127 0 -242.5 39t-212 110t-167.5 167.5t-110 212t-39 242.5t39 242.5t110 212t167.5 167.5t212 110t242.5 39t242.5 -39t212 -110t167.5 -167.5t110 -212t39 -242.5t-39 -242.5t-110 -212
t-167.5 -167.5t-212 -110t-242.5 -39z" />
    <glyph glyph-name="uni24C1" unicode="L&#x20dd;" 
d="M1107 495v-107h-446v693h131v-586h315zM839 78q107 0 203 32.5t175 91.5t136.5 139t89 176.5t31.5 202.5t-31.5 202.5t-89 176.5t-136.5 139t-175 91.5t-203 32.5t-203 -32.5t-175 -91.5t-136.5 -139t-89 -176.5t-31.5 -202.5t31.5 -202.5t89 -176.5t136.5 -139
t175 -91.5t203 -32.5zM839 -50q-127 0 -242.5 39t-212 110t-167.5 167.5t-110 212t-39 242.5t39 242.5t110 212t167.5 167.5t212 110t242.5 39t242.5 -39t212 -110t167.5 -167.5t110 -212t39 -242.5t-39 -242.5t-110 -212t-167.5 -167.5t-212 -110t-242.5 -39z" />
    <glyph glyph-name="uni24C2" unicode="M&#x20dd;" 
d="M607 388h-117v693h132l216 -533h4l216 533h130v-693h-117v473h-6l-180 -453h-91l-181 453h-6v-473zM839 78q107 0 203 32.5t175 91.5t136.5 139t89 176.5t31.5 202.5t-31.5 202.5t-89 176.5t-136.5 139t-175 91.5t-203 32.5t-203 -32.5t-175 -91.5t-136.5 -139
t-89 -176.5t-31.5 -202.5t31.5 -202.5t89 -176.5t136.5 -139t175 -91.5t203 -32.5zM839 -50q-127 0 -242.5 39t-212 110t-167.5 167.5t-110 212t-39 242.5t39 242.5t110 212t167.5 167.5t212 110t242.5 39t242.5 -39t212 -110t167.5 -167.5t110 -212t39 -242.5t-39 -242.5
t-110 -212t-167.5 -167.5t-212 -110t-242.5 -39z" />
    <glyph glyph-name="uni24C3" unicode="N&#x20dd;" 
d="M677 388h-124v693h111l331 -482h6v482h124v-693h-111l-332 484h-5v-484zM839 78q107 0 203 32.5t175 91.5t136.5 139t89 176.5t31.5 202.5t-31.5 202.5t-89 176.5t-136.5 139t-175 91.5t-203 32.5t-203 -32.5t-175 -91.5t-136.5 -139t-89 -176.5t-31.5 -202.5
t31.5 -202.5t89 -176.5t136.5 -139t175 -91.5t203 -32.5zM839 -50q-127 0 -242.5 39t-212 110t-167.5 167.5t-110 212t-39 242.5t39 242.5t110 212t167.5 167.5t212 110t242.5 39t242.5 -39t212 -110t167.5 -167.5t110 -212t39 -242.5t-39 -242.5t-110 -212t-167.5 -167.5
t-212 -110t-242.5 -39z" />
    <glyph glyph-name="uni24C4" unicode="O&#x20dd;" 
d="M839 480q54 0 98 29.5t70 86t26 138.5t-26 139t-70 86.5t-98 29.5t-98 -29.5t-70 -86.5t-26 -139t26 -138.5t70 -86t98 -29.5zM839 375q-90 0 -164 42t-118 122.5t-44 194.5q0 115 44 195.5t118 122.5t164 42t164 -42t118 -122.5t44 -195.5q0 -114 -44 -194.5
t-118 -122.5t-164 -42zM839 78q107 0 203 32.5t175 91.5t136.5 139t89 176.5t31.5 202.5t-31.5 202.5t-89 176.5t-136.5 139t-175 91.5t-203 32.5t-203 -32.5t-175 -91.5t-136.5 -139t-89 -176.5t-31.5 -202.5t31.5 -202.5t89 -176.5t136.5 -139t175 -91.5t203 -32.5z
M839 -50q-127 0 -242.5 39t-212 110t-167.5 167.5t-110 212t-39 242.5t39 242.5t110 212t167.5 167.5t212 110t242.5 39t242.5 -39t212 -110t167.5 -167.5t110 -212t39 -242.5t-39 -242.5t-110 -212t-167.5 -167.5t-212 -110t-242.5 -39z" />
    <glyph glyph-name="uni24C5" unicode="P&#x20dd;" 
d="M901 1081q76 0 130.5 -30t83 -81.5t28.5 -115.5q0 -65 -29 -116t-83 -80t-131 -29h-153v-241h-129v693h283zM1010 854q0 60 -34.5 93t-96.5 33h-132v-251h132q62 0 96.5 32.5t34.5 92.5zM839 78q107 0 203 32.5t175 91.5t136.5 139t89 176.5t31.5 202.5t-31.5 202.5
t-89 176.5t-136.5 139t-175 91.5t-203 32.5t-203 -32.5t-175 -91.5t-136.5 -139t-89 -176.5t-31.5 -202.5t31.5 -202.5t89 -176.5t136.5 -139t175 -91.5t203 -32.5zM839 -50q-127 0 -242.5 39t-212 110t-167.5 167.5t-110 212t-39 242.5t39 242.5t110 212t167.5 167.5
t212 110t242.5 39t242.5 -39t212 -110t167.5 -167.5t110 -212t39 -242.5t-39 -242.5t-110 -212t-167.5 -167.5t-212 -110t-242.5 -39z" />
    <glyph glyph-name="uni24C6" unicode="Q&#x20dd;" 
d="M1139 319h-128l-56 76q-55 -20 -116 -20q-90 0 -164 42t-118 122.5t-44 194.5q0 115 44 195.5t118 122.5t164 42t164 -42t118 -122.5t44 -195.5q0 -98 -32.5 -170t-87.5 -118zM839 480q13 0 25.5 1.5t23.5 5.5l-84 115h126l44 -60q27 32 43 80.5t16 111.5q0 82 -26 139
t-70 86.5t-98 29.5t-98 -29.5t-70 -86.5t-26 -139t26 -138.5t70 -86t98 -29.5zM839 78q107 0 203 32.5t175 91.5t136.5 139t89 176.5t31.5 202.5t-31.5 202.5t-89 176.5t-136.5 139t-175 91.5t-203 32.5t-203 -32.5t-175 -91.5t-136.5 -139t-89 -176.5t-31.5 -202.5
t31.5 -202.5t89 -176.5t136.5 -139t175 -91.5t203 -32.5zM839 -50q-127 0 -242.5 39t-212 110t-167.5 167.5t-110 212t-39 242.5t39 242.5t110 212t167.5 167.5t212 110t242.5 39t242.5 -39t212 -110t167.5 -167.5t110 -212t39 -242.5t-39 -242.5t-110 -212t-167.5 -167.5
t-212 -110t-242.5 -39z" />
    <glyph glyph-name="uni24C7" unicode="R&#x20dd;" 
d="M873 1081q117 0 183 -59t66 -157q0 -49 -18.5 -88t-48.5 -66t-66 -40l146 -283h-146l-128 263h-142v-263h-128v693h282zM719 747h132q64 0 100.5 29t36.5 85q0 59 -36.5 89.5t-96.5 30.5h-136v-234zM839 78q107 0 203 32.5t175 91.5t136.5 139t89 176.5t31.5 202.5
t-31.5 202.5t-89 176.5t-136.5 139t-175 91.5t-203 32.5t-203 -32.5t-175 -91.5t-136.5 -139t-89 -176.5t-31.5 -202.5t31.5 -202.5t89 -176.5t136.5 -139t175 -91.5t203 -32.5zM839 -50q-127 0 -242.5 39t-212 110t-167.5 167.5t-110 212t-39 242.5t39 242.5t110 212
t167.5 167.5t212 110t242.5 39t242.5 -39t212 -110t167.5 -167.5t110 -212t39 -242.5t-39 -242.5t-110 -212t-167.5 -167.5t-212 -110t-242.5 -39z" />
    <glyph glyph-name="uni24C8" unicode="S&#x20dd;" 
d="M559 582h127q5 -48 48 -77.5t110 -29.5t106.5 28t39.5 75q0 36 -27 58.5t-88 37.5l-117 26q-88 20 -134 68t-46 121q0 61 33.5 107.5t93.5 72.5t139 26q77 0 136.5 -25.5t93.5 -71.5t35 -106h-124q-4 47 -42.5 75.5t-99.5 28.5q-60 0 -97 -28t-37 -72q0 -65 100 -87
l117 -26q99 -23 146 -70t47 -124q0 -66 -34.5 -114t-98 -74t-150.5 -26q-83 0 -144.5 25.5t-96 71.5t-36.5 110zM839 78q107 0 203 32.5t175 91.5t136.5 139t89 176.5t31.5 202.5t-31.5 202.5t-89 176.5t-136.5 139t-175 91.5t-203 32.5t-203 -32.5t-175 -91.5t-136.5 -139
t-89 -176.5t-31.5 -202.5t31.5 -202.5t89 -176.5t136.5 -139t175 -91.5t203 -32.5zM839 -50q-127 0 -242.5 39t-212 110t-167.5 167.5t-110 212t-39 242.5t39 242.5t110 212t167.5 167.5t212 110t242.5 39t242.5 -39t212 -110t167.5 -167.5t110 -212t39 -242.5t-39 -242.5
t-110 -212t-167.5 -167.5t-212 -110t-242.5 -39z" />
    <glyph glyph-name="uni24C9" unicode="T&#x20dd;" 
d="M905 368h-132v588h-210v105h552v-105h-210v-588zM839 78q107 0 203 32.5t175 91.5t136.5 139t89 176.5t31.5 202.5t-31.5 202.5t-89 176.5t-136.5 139t-175 91.5t-203 32.5t-203 -32.5t-175 -91.5t-136.5 -139t-89 -176.5t-31.5 -202.5t31.5 -202.5t89 -176.5t136.5 -139
t175 -91.5t203 -32.5zM839 -50q-127 0 -242.5 39t-212 110t-167.5 167.5t-110 212t-39 242.5t39 242.5t110 212t167.5 167.5t212 110t242.5 39t242.5 -39t212 -110t167.5 -167.5t110 -212t39 -242.5t-39 -242.5t-110 -212t-167.5 -167.5t-212 -110t-242.5 -39z" />
    <glyph glyph-name="uni24CA" unicode="U&#x20dd;" 
d="M839 462q71 0 114.5 40.5t43.5 115.5v443h130v-454q0 -75 -35.5 -132t-100 -88.5t-152.5 -31.5t-152.5 31.5t-100 88.5t-35.5 132v454h130v-443q0 -75 43.5 -115.5t114.5 -40.5zM839 78q107 0 203 32.5t175 91.5t136.5 139t89 176.5t31.5 202.5t-31.5 202.5t-89 176.5
t-136.5 139t-175 91.5t-203 32.5t-203 -32.5t-175 -91.5t-136.5 -139t-89 -176.5t-31.5 -202.5t31.5 -202.5t89 -176.5t136.5 -139t175 -91.5t203 -32.5zM839 -50q-127 0 -242.5 39t-212 110t-167.5 167.5t-110 212t-39 242.5t39 242.5t110 212t167.5 167.5t212 110
t242.5 39t242.5 -39t212 -110t167.5 -167.5t110 -212t39 -242.5t-39 -242.5t-110 -212t-167.5 -167.5t-212 -110t-242.5 -39z" />
    <glyph glyph-name="uni24CB" unicode="V&#x20dd;" 
d="M761 368l-250 693h151l174 -555h6l174 555h151l-250 -693h-156zM839 78q107 0 203 32.5t175 91.5t136.5 139t89 176.5t31.5 202.5t-31.5 202.5t-89 176.5t-136.5 139t-175 91.5t-203 32.5t-203 -32.5t-175 -91.5t-136.5 -139t-89 -176.5t-31.5 -202.5t31.5 -202.5
t89 -176.5t136.5 -139t175 -91.5t203 -32.5zM839 -50q-127 0 -242.5 39t-212 110t-167.5 167.5t-110 212t-39 242.5t39 242.5t110 212t167.5 167.5t212 110t242.5 39t242.5 -39t212 -110t167.5 -167.5t110 -212t39 -242.5t-39 -242.5t-110 -212t-167.5 -167.5t-212 -110
t-242.5 -39z" />
    <glyph glyph-name="uni24CC" unicode="W&#x20dd;" 
d="M837 869l-140 -501h-119l-195 693h143l117 -518h6l133 518h114l133 -518h6l117 518h143l-195 -693h-119l-140 501h-4zM839 78q107 0 203 32.5t175 91.5t136.5 139t89 176.5t31.5 202.5t-31.5 202.5t-89 176.5t-136.5 139t-175 91.5t-203 32.5t-203 -32.5t-175 -91.5
t-136.5 -139t-89 -176.5t-31.5 -202.5t31.5 -202.5t89 -176.5t136.5 -139t175 -91.5t203 -32.5zM839 -50q-127 0 -242.5 39t-212 110t-167.5 167.5t-110 212t-39 242.5t39 242.5t110 212t167.5 167.5t212 110t242.5 39t242.5 -39t212 -110t167.5 -167.5t110 -212t39 -242.5
t-39 -242.5t-110 -212t-167.5 -167.5t-212 -110t-242.5 -39z" />
    <glyph glyph-name="uni24CD" unicode="X&#x20dd;" 
d="M1153 1081l-233 -348l230 -345h-152l-161 253h-6l-163 -253h-143l229 349l-227 344h155l159 -256h6l158 256h148zM839 78q107 0 203 32.5t175 91.5t136.5 139t89 176.5t31.5 202.5t-31.5 202.5t-89 176.5t-136.5 139t-175 91.5t-203 32.5t-203 -32.5t-175 -91.5
t-136.5 -139t-89 -176.5t-31.5 -202.5t31.5 -202.5t89 -176.5t136.5 -139t175 -91.5t203 -32.5zM839 -50q-127 0 -242.5 39t-212 110t-167.5 167.5t-110 212t-39 242.5t39 242.5t110 212t167.5 167.5t212 110t242.5 39t242.5 -39t212 -110t167.5 -167.5t110 -212t39 -242.5
t-39 -242.5t-110 -212t-167.5 -167.5t-212 -110t-242.5 -39z" />
    <glyph glyph-name="uni24CE" unicode="Y&#x20dd;" 
d="M905 383h-131v273l-243 420h145l162 -297h5l162 297h142l-242 -418v-275zM839 78q107 0 203 32.5t175 91.5t136.5 139t89 176.5t31.5 202.5t-31.5 202.5t-89 176.5t-136.5 139t-175 91.5t-203 32.5t-203 -32.5t-175 -91.5t-136.5 -139t-89 -176.5t-31.5 -202.5
t31.5 -202.5t89 -176.5t136.5 -139t175 -91.5t203 -32.5zM839 -50q-127 0 -242.5 39t-212 110t-167.5 167.5t-110 212t-39 242.5t39 242.5t110 212t167.5 167.5t212 110t242.5 39t242.5 -39t212 -110t167.5 -167.5t110 -212t39 -242.5t-39 -242.5t-110 -212t-167.5 -167.5
t-212 -110t-242.5 -39z" />
    <glyph glyph-name="uni24CF" unicode="Z&#x20dd;" 
d="M574 388v83l361 499v7h-350v104h509v-83l-360 -499v-7h370v-104h-530zM839 78q107 0 203 32.5t175 91.5t136.5 139t89 176.5t31.5 202.5t-31.5 202.5t-89 176.5t-136.5 139t-175 91.5t-203 32.5t-203 -32.5t-175 -91.5t-136.5 -139t-89 -176.5t-31.5 -202.5t31.5 -202.5
t89 -176.5t136.5 -139t175 -91.5t203 -32.5zM839 -50q-127 0 -242.5 39t-212 110t-167.5 167.5t-110 212t-39 242.5t39 242.5t110 212t167.5 167.5t212 110t242.5 39t242.5 -39t212 -110t167.5 -167.5t110 -212t39 -242.5t-39 -242.5t-110 -212t-167.5 -167.5t-212 -110
t-242.5 -39z" />
    <glyph glyph-name="u1F10B" unicode="&#x23;&#x20dd;" 
d="M839 486q66 0 105 65t39 184t-39 184t-105 65t-105 -65t-39 -184t39 -184t105 -65zM839 376q-78 0 -138.5 42t-95 122t-34.5 195t34.5 195t95 122t138.5 42t138.5 -42t95 -122t34.5 -195t-34.5 -195t-95 -122t-138.5 -42zM839 78q107 0 203 32.5t175 91.5t136.5 139
t89 176.5t31.5 202.5t-31.5 202.5t-89 176.5t-136.5 139t-175 91.5t-203 32.5t-203 -32.5t-175 -91.5t-136.5 -139t-89 -176.5t-31.5 -202.5t31.5 -202.5t89 -176.5t136.5 -139t175 -91.5t203 -32.5zM839 -50q-127 0 -242.5 39t-212 110t-167.5 167.5t-110 212t-39 242.5
t39 242.5t110 212t167.5 167.5t212 110t242.5 39t242.5 -39t212 -110t167.5 -167.5t110 -212t39 -242.5t-39 -242.5t-110 -212t-167.5 -167.5t-212 -110t-242.5 -39z" />
    <glyph glyph-name="u1F10C" unicode="&#x30;&#x20dd;&#x25cf;" 
d="M835 461q-70 0 -109 70.5t-39 203.5t39 203.5t109 70.5t109 -70.5t39 -203.5t-39 -203.5t-109 -70.5zM835 338q92 0 159.5 48t105 137t37.5 212t-37.5 212t-105 137t-159.5 48t-159.5 -48t-105 -137t-37.5 -212t37.5 -212t105 -137t159.5 -48zM839 -50q-127 0 -242.5 39
t-212 110t-167.5 167.5t-110 212t-39 242.5t39 242.5t110 212t167.5 167.5t212 110t242.5 39t242.5 -39t212 -110t167.5 -167.5t110 -212t39 -242.5t-39 -242.5t-110 -212t-167.5 -167.5t-212 -110t-242.5 -39z" />
    <glyph glyph-name="uni278A" unicode="&#x31;&#x20dd;&#x25cf;" 
d="M952 353v765h-148l-191 -132v-140l187 128h1v-621h151zM839 -50q-127 0 -242.5 39t-212 110t-167.5 167.5t-110 212t-39 242.5t39 242.5t110 212t167.5 167.5t212 110t242.5 39t242.5 -39t212 -110t167.5 -167.5t110 -212t39 -242.5t-39 -242.5t-110 -212t-167.5 -167.5
t-212 -110t-242.5 -39z" />
    <glyph glyph-name="uni278B" unicode="&#x32;&#x20dd;&#x25cf;" 
d="M711 886v11q0 46 31.5 80.5t90.5 34.5q50 0 84.5 -30t34.5 -77q0 -48 -28 -85.5t-60 -70.5l-293 -306v-91h546v122h-342v0l203 212q33 35 61.5 69.5t46 73.5t17.5 87q0 62 -33 110.5t-93.5 76.5t-141.5 28q-91 0 -151 -34t-89.5 -87.5t-29.5 -112.5v-11h146zM839 -50
q-127 0 -242.5 39t-212 110t-167.5 167.5t-110 212t-39 242.5t39 242.5t110 212t167.5 167.5t212 110t242.5 39t242.5 -39t212 -110t167.5 -167.5t110 -212t39 -242.5t-39 -242.5t-110 -212t-167.5 -167.5t-212 -110t-242.5 -39z" />
    <glyph glyph-name="uni278C" unicode="&#x33;&#x20dd;&#x25cf;" 
d="M743 688h93q64 0 102 -32.5t39 -82.5q0 -51 -39.5 -84t-106.5 -33q-59 1 -99 29t-45 69h-140q2 -59 36 -108t96 -78.5t151 -29.5q83 0 151.5 27.5t109 79.5t39.5 124q-2 61 -29 100.5t-65.5 60t-74.5 24.5v0v0q29 6 63 28t58 60t23 91q-2 57 -35.5 102.5t-93.5 71.5
t-141 26q-86 -1 -146 -30t-92 -77.5t-34 -107.5h144q2 38 35 67.5t89 29.5q54 0 88.5 -28.5t35.5 -74.5q0 -46 -35 -76t-89 -30h-88v-118zM839 -50q-127 0 -242.5 39t-212 110t-167.5 167.5t-110 212t-39 242.5t39 242.5t110 212t167.5 167.5t212 110t242.5 39t242.5 -39
t212 -110t167.5 -167.5t110 -212t39 -242.5t-39 -242.5t-110 -212t-167.5 -167.5t-212 -110t-242.5 -39z" />
    <glyph glyph-name="uni278D" unicode="&#x34;&#x20dd;&#x25cf;" 
d="M807 1118q-60 -94 -107 -167t-84 -131t-66.5 -108t-56.5 -97v-117h383v-145h145v145h100v120h-100v500h-214zM876 618h-241v1q55 95 117.5 191.5t123.5 188.5v0v0v-381zM839 -50q-127 0 -242.5 39t-212 110t-167.5 167.5t-110 212t-39 242.5t39 242.5t110 212
t167.5 167.5t212 110t242.5 39t242.5 -39t212 -110t167.5 -167.5t110 -212t39 -242.5t-39 -242.5t-110 -212t-167.5 -167.5t-212 -110t-242.5 -39z" />
    <glyph glyph-name="uni278E" unicode="&#x35;&#x20dd;&#x25cf;" 
d="M558 552q3 -61 38.5 -109t97 -76t143.5 -28q88 0 155.5 34t105.5 95t38 143q0 79 -35.5 134.5t-94.5 85t-129 29.5q-64 0 -104 -22t-56 -41v0v0l17 201h359v120h-483l-35 -448h131q13 25 47 49.5t88 24.5q40 0 73 -17t53 -48t20 -73q0 -48 -21 -81t-54 -50t-69 -17
q-50 0 -92 23.5t-51 70.5h-142zM839 -50q-127 0 -242.5 39t-212 110t-167.5 167.5t-110 212t-39 242.5t39 242.5t110 212t167.5 167.5t212 110t242.5 39t242.5 -39t212 -110t167.5 -167.5t110 -212t39 -242.5t-39 -242.5t-110 -212t-167.5 -167.5t-212 -110t-242.5 -39z" />
    <glyph glyph-name="uni278F" unicode="&#x36;&#x20dd;&#x25cf;" 
d="M874 348q89 0 158.5 35t109.5 96t40 140q0 72 -33.5 128.5t-93.5 88.5t-138 32q-82 0 -140.5 -34.5t-82.5 -87.5h-2q0 125 46 199.5t137 74.5q52 0 89 -22.5t52 -63.5h155q-12 63 -52.5 111.5t-103 75.5t-139.5 27q-105 0 -180 -49t-115 -140t-40 -218
q0 -131 44.5 -218.5t120 -131t168.5 -43.5zM872 475q-43 0 -78.5 19t-56.5 50.5t-21 71.5q0 39 20.5 69.5t56.5 47.5t81 17t79.5 -17.5t55 -48.5t19.5 -71q0 -39 -21 -70t-56.5 -49.5t-78.5 -18.5zM839 -50q-127 0 -242.5 39t-212 110t-167.5 167.5t-110 212t-39 242.5
t39 242.5t110 212t167.5 167.5t212 110t242.5 39t242.5 -39t212 -110t167.5 -167.5t110 -212t39 -242.5t-39 -242.5t-110 -212t-167.5 -167.5t-212 -110t-242.5 -39z" />
    <glyph glyph-name="uni2790" unicode="&#x37;&#x20dd;&#x25cf;" 
d="M580 1108v-123h392v-1l-332 -641h159l325 645v120h-544zM839 -50q-127 0 -242.5 39t-212 110t-167.5 167.5t-110 212t-39 242.5t39 242.5t110 212t167.5 167.5t212 110t242.5 39t242.5 -39t212 -110t167.5 -167.5t110 -212t39 -242.5t-39 -242.5t-110 -212t-167.5 -167.5
t-212 -110t-242.5 -39z" />
    <glyph glyph-name="uni2791" unicode="&#x38;&#x20dd;&#x25cf;" 
d="M835 805q-56 0 -90.5 30t-34.5 78t34.5 78t90.5 30t90.5 -30t34.5 -78t-34.5 -78t-90.5 -30zM835 449q-67 0 -110.5 35.5t-43.5 88.5q0 54 43.5 89.5t110.5 35.5t110.5 -35.5t43.5 -89.5q0 -53 -43.5 -88.5t-110.5 -35.5zM835 338q90 0 158.5 28.5t107 79.5t38.5 119
q0 70 -44 121.5t-119 67.5v0v0q62 21 96.5 66.5t34.5 107.5q0 60 -34.5 106.5t-96 72.5t-141.5 26t-141.5 -26t-96 -72.5t-34.5 -106.5q0 -62 34.5 -107.5t96.5 -66.5v0v0q-75 -16 -119 -67.5t-44 -121.5q0 -68 38.5 -119t107 -79.5t158.5 -28.5zM839 -50q-127 0 -242.5 39
t-212 110t-167.5 167.5t-110 212t-39 242.5t39 242.5t110 212t167.5 167.5t212 110t242.5 39t242.5 -39t212 -110t167.5 -167.5t110 -212t39 -242.5t-39 -242.5t-110 -212t-167.5 -167.5t-212 -110t-242.5 -39z" />
    <glyph glyph-name="uni2792" unicode="&#x39;&#x20dd;&#x25cf;" 
d="M848 348q104 0 179 49t115 140t40 217q0 105 -27.5 180t-74.5 122t-107 69.5t-124 22.5q-89 0 -158.5 -35t-109.5 -96t-40 -141q0 -74 36 -130.5t97 -87.5t137 -31q80 0 137.5 34t80.5 89h3q0 -82 -19.5 -143.5t-60.5 -96.5t-104 -35q-53 0 -90.5 21.5t-51.5 62.5h-155
q11 -62 52 -109.5t104.5 -74.5t140.5 -27zM849 746q-44 0 -79 17.5t-55.5 48.5t-20.5 71q0 39 21 70t56.5 49t79.5 18t79.5 -18.5t56 -50t20.5 -71.5q0 -39 -21 -69.5t-56.5 -47.5t-80.5 -17zM839 -50q-127 0 -242.5 39t-212 110t-167.5 167.5t-110 212t-39 242.5t39 242.5
t110 212t167.5 167.5t212 110t242.5 39t242.5 -39t212 -110t167.5 -167.5t110 -212t39 -242.5t-39 -242.5t-110 -212t-167.5 -167.5t-212 -110t-242.5 -39z" />
    <glyph glyph-name="u1F130" unicode="A&#x20de;" 
d="M739 668h200l-95 287h-10zM649 388h-132l248 693h148l248 -693h-132l-62 186h-256zM355 1464h968q72 0 130.5 -34.5t93 -92t34.5 -127.5v-976q0 -70 -34.5 -127.5t-93 -92t-130.5 -34.5h-968q-71 0 -129.5 34.5t-93.5 92t-35 127.5v976q0 70 35 127.5t93.5 92t129.5 34.5
zM1452 1208q0 38 -19.5 69t-52 50t-71.5 19h-940q-38 0 -71 -18.5t-52.5 -50t-19.5 -69.5v-972q0 -38 19.5 -69t52.5 -50t71 -19h940q39 0 71.5 19t52 50t19.5 69v972z" />
    <glyph glyph-name="u1F131" unicode="B&#x20de;" 
d="M602 388v693h294q97 0 154 -45.5t57 -125.5q0 -62 -34 -100t-88 -52v-5q68 -7 114.5 -50t46.5 -120q0 -61 -32 -105t-89 -67t-132 -23h-291zM731 984v-194h98q78 0 114 25t36 74q0 44 -29 69.5t-82 25.5h-137zM731 700v-215h111q91 0 131 25.5t40 78.5q0 52 -35 81.5
t-101 29.5h-146zM355 1464h968q72 0 130.5 -34.5t93 -92t34.5 -127.5v-976q0 -70 -34.5 -127.5t-93 -92t-130.5 -34.5h-968q-71 0 -129.5 34.5t-93.5 92t-35 127.5v976q0 70 35 127.5t93.5 92t129.5 34.5zM1452 1208q0 38 -19.5 69t-52 50t-71.5 19h-940q-38 0 -71 -18.5
t-52.5 -50t-19.5 -69.5v-972q0 -38 19.5 -69t52.5 -50t71 -19h940q39 0 71.5 19t52 50t19.5 69v972z" />
    <glyph glyph-name="u1F132" unicode="C&#x20de;" 
d="M1007 606h132q-10 -70 -50.5 -121.5t-105 -80.5t-146.5 -29q-97 0 -170 45t-113.5 126t-40.5 188t40.5 188t113.5 126.5t170 45.5q84 0 149 -30t105 -84t50 -126h-130q-8 59 -56 97t-116 38q-58 0 -102 -32t-68 -89.5t-24 -133.5t24 -133.5t68 -89t102 -31.5
q65 0 112.5 35.5t55.5 90.5zM355 1464h968q72 0 130.5 -34.5t93 -92t34.5 -127.5v-976q0 -70 -34.5 -127.5t-93 -92t-130.5 -34.5h-968q-71 0 -129.5 34.5t-93.5 92t-35 127.5v976q0 70 35 127.5t93.5 92t129.5 34.5zM1452 1208q0 38 -19.5 69t-52 50t-71.5 19h-940
q-38 0 -71 -18.5t-52.5 -50t-19.5 -69.5v-972q0 -38 19.5 -69t52.5 -50t71 -19h940q39 0 71.5 19t52 50t19.5 69v972z" />
    <glyph glyph-name="u1F133" unicode="D&#x20de;" 
d="M572 1081h256q163 0 243 -89.5t80 -255.5t-80 -257t-243 -91h-256v693zM702 978v-487h110q105 0 155 60.5t50 182.5t-50 183t-155 61h-110zM355 1464h968q72 0 130.5 -34.5t93 -92t34.5 -127.5v-976q0 -70 -34.5 -127.5t-93 -92t-130.5 -34.5h-968q-71 0 -129.5 34.5
t-93.5 92t-35 127.5v976q0 70 35 127.5t93.5 92t129.5 34.5zM1452 1208q0 38 -19.5 69t-52 50t-71.5 19h-940q-38 0 -71 -18.5t-52.5 -50t-19.5 -69.5v-972q0 -38 19.5 -69t52.5 -50t71 -19h940q39 0 71.5 19t52 50t19.5 69v972z" />
    <glyph glyph-name="u1F134" unicode="E&#x20de;" 
d="M1074 491v-103h-459v693h459v-103h-330v-190h311v-98h-311v-199h330zM355 1464h968q72 0 130.5 -34.5t93 -92t34.5 -127.5v-976q0 -70 -34.5 -127.5t-93 -92t-130.5 -34.5h-968q-71 0 -129.5 34.5t-93.5 92t-35 127.5v976q0 70 35 127.5t93.5 92t129.5 34.5zM1452 1208
q0 38 -19.5 69t-52 50t-71.5 19h-940q-38 0 -71 -18.5t-52.5 -50t-19.5 -69.5v-972q0 -38 19.5 -69t52.5 -50t71 -19h940q39 0 71.5 19t52 50t19.5 69v972z" />
    <glyph glyph-name="u1F135" unicode="F&#x20de;" 
d="M777 388h-131v693h454v-104h-323v-205h295v-102h-295v-282zM355 1464h968q72 0 130.5 -34.5t93 -92t34.5 -127.5v-976q0 -70 -34.5 -127.5t-93 -92t-130.5 -34.5h-968q-71 0 -129.5 34.5t-93.5 92t-35 127.5v976q0 70 35 127.5t93.5 92t129.5 34.5zM1452 1208
q0 38 -19.5 69t-52 50t-71.5 19h-940q-38 0 -71 -18.5t-52.5 -50t-19.5 -69.5v-972q0 -38 19.5 -69t52.5 -50t71 -19h940q39 0 71.5 19t52 50t19.5 69v972z" />
    <glyph glyph-name="u1F136" unicode="G&#x20de;" 
d="M1010 604v57h-160v95h284v-122q0 -76 -33.5 -134t-99 -91.5t-162.5 -33.5t-170.5 45t-114.5 126t-41 188t41 188t114.5 126.5t170.5 45.5q81 0 145.5 -29t105 -80.5t49.5 -120.5h-130q-6 36 -29.5 64t-59.5 44.5t-79 16.5q-60 0 -104 -31.5t-68 -88.5t-24 -135
q0 -77 24 -134t68 -88.5t104 -31.5q82 0 125.5 34.5t43.5 89.5zM355 1464h968q72 0 130.5 -34.5t93 -92t34.5 -127.5v-976q0 -70 -34.5 -127.5t-93 -92t-130.5 -34.5h-968q-71 0 -129.5 34.5t-93.5 92t-35 127.5v976q0 70 35 127.5t93.5 92t129.5 34.5zM1452 1208
q0 38 -19.5 69t-52 50t-71.5 19h-940q-38 0 -71 -18.5t-52.5 -50t-19.5 -69.5v-972q0 -38 19.5 -69t52.5 -50t71 -19h940q39 0 71.5 19t52 50t19.5 69v972z" />
    <glyph glyph-name="u1F137" unicode="H&#x20de;" 
d="M1130 388h-130v304h-321v-304h-130v693h130v-286h321v286h130v-693zM355 1464h968q72 0 130.5 -34.5t93 -92t34.5 -127.5v-976q0 -70 -34.5 -127.5t-93 -92t-130.5 -34.5h-968q-71 0 -129.5 34.5t-93.5 92t-35 127.5v976q0 70 35 127.5t93.5 92t129.5 34.5zM1452 1208
q0 38 -19.5 69t-52 50t-71.5 19h-940q-38 0 -71 -18.5t-52.5 -50t-19.5 -69.5v-972q0 -38 19.5 -69t52.5 -50t71 -19h940q39 0 71.5 19t52 50t19.5 69v972z" />
    <glyph glyph-name="u1F138" unicode="I&#x20de;" 
d="M905 388h-132v693h132v-693zM355 1464h968q72 0 130.5 -34.5t93 -92t34.5 -127.5v-976q0 -70 -34.5 -127.5t-93 -92t-130.5 -34.5h-968q-71 0 -129.5 34.5t-93.5 92t-35 127.5v976q0 70 35 127.5t93.5 92t129.5 34.5zM1452 1208q0 38 -19.5 69t-52 50t-71.5 19h-940
q-38 0 -71 -18.5t-52.5 -50t-19.5 -69.5v-972q0 -38 19.5 -69t52.5 -50t71 -19h940q39 0 71.5 19t52 50t19.5 69v972z" />
    <glyph glyph-name="u1F139" unicode="J&#x20de;" 
d="M575 576h126q1 -40 28.5 -65.5t71.5 -25.5q53 0 80 30t27 85v481h130v-477q0 -111 -63 -170t-173 -59q-74 0 -124.5 27t-76.5 72.5t-26 101.5zM355 1464h968q72 0 130.5 -34.5t93 -92t34.5 -127.5v-976q0 -70 -34.5 -127.5t-93 -92t-130.5 -34.5h-968q-71 0 -129.5 34.5
t-93.5 92t-35 127.5v976q0 70 35 127.5t93.5 92t129.5 34.5zM1452 1208q0 38 -19.5 69t-52 50t-71.5 19h-940q-38 0 -71 -18.5t-52.5 -50t-19.5 -69.5v-972q0 -38 19.5 -69t52.5 -50t71 -19h940q39 0 71.5 19t52 50t19.5 69v972z" />
    <glyph glyph-name="u1F13A" unicode="&#x212a;&#x20de;" 
d="M1154 1081l-263 -297l274 -396h-158l-212 312l-78 -84v-228h-130v693h130v-317h5l287 317h145zM355 1464h968q72 0 130.5 -34.5t93 -92t34.5 -127.5v-976q0 -70 -34.5 -127.5t-93 -92t-130.5 -34.5h-968q-71 0 -129.5 34.5t-93.5 92t-35 127.5v976q0 70 35 127.5t93.5 92
t129.5 34.5zM1452 1208q0 38 -19.5 69t-52 50t-71.5 19h-940q-38 0 -71 -18.5t-52.5 -50t-19.5 -69.5v-972q0 -38 19.5 -69t52.5 -50t71 -19h940q39 0 71.5 19t52 50t19.5 69v972z" />
    <glyph glyph-name="u1F13B" unicode="L&#x20de;" 
d="M1117 495v-107h-446v693h131v-586h315zM355 1464h968q72 0 130.5 -34.5t93 -92t34.5 -127.5v-976q0 -70 -34.5 -127.5t-93 -92t-130.5 -34.5h-968q-71 0 -129.5 34.5t-93.5 92t-35 127.5v976q0 70 35 127.5t93.5 92t129.5 34.5zM1452 1208q0 38 -19.5 69t-52 50t-71.5 19
h-940q-38 0 -71 -18.5t-52.5 -50t-19.5 -69.5v-972q0 -38 19.5 -69t52.5 -50t71 -19h940q39 0 71.5 19t52 50t19.5 69v972z" />
    <glyph glyph-name="u1F13C" unicode="M&#x20de;" 
d="M607 388h-117v693h132l216 -533h4l216 533h130v-693h-117v473h-6l-180 -453h-91l-181 453h-6v-473zM355 1464h968q72 0 130.5 -34.5t93 -92t34.5 -127.5v-976q0 -70 -34.5 -127.5t-93 -92t-130.5 -34.5h-968q-71 0 -129.5 34.5t-93.5 92t-35 127.5v976q0 70 35 127.5
t93.5 92t129.5 34.5zM1452 1208q0 38 -19.5 69t-52 50t-71.5 19h-940q-38 0 -71 -18.5t-52.5 -50t-19.5 -69.5v-972q0 -38 19.5 -69t52.5 -50t71 -19h940q39 0 71.5 19t52 50t19.5 69v972z" />
    <glyph glyph-name="u1F13D" unicode="N&#x20de;" 
d="M677 388h-124v693h111l331 -482h6v482h124v-693h-111l-332 484h-5v-484zM355 1464h968q72 0 130.5 -34.5t93 -92t34.5 -127.5v-976q0 -70 -34.5 -127.5t-93 -92t-130.5 -34.5h-968q-71 0 -129.5 34.5t-93.5 92t-35 127.5v976q0 70 35 127.5t93.5 92t129.5 34.5z
M1452 1208q0 38 -19.5 69t-52 50t-71.5 19h-940q-38 0 -71 -18.5t-52.5 -50t-19.5 -69.5v-972q0 -38 19.5 -69t52.5 -50t71 -19h940q39 0 71.5 19t52 50t19.5 69v972z" />
    <glyph glyph-name="u1F13E" unicode="O&#x20de;" 
d="M839 480q54 0 98 29.5t70 86t26 138.5t-26 139t-70 86.5t-98 29.5t-98 -29.5t-70 -86.5t-26 -139t26 -138.5t70 -86t98 -29.5zM839 375q-90 0 -164 42t-118 122.5t-44 194.5q0 115 44 195.5t118 122.5t164 42t164 -42t118 -122.5t44 -195.5q0 -114 -44 -194.5
t-118 -122.5t-164 -42zM355 1464h968q72 0 130.5 -34.5t93 -92t34.5 -127.5v-976q0 -70 -34.5 -127.5t-93 -92t-130.5 -34.5h-968q-71 0 -129.5 34.5t-93.5 92t-35 127.5v976q0 70 35 127.5t93.5 92t129.5 34.5zM1452 1208q0 38 -19.5 69t-52 50t-71.5 19h-940
q-38 0 -71 -18.5t-52.5 -50t-19.5 -69.5v-972q0 -38 19.5 -69t52.5 -50t71 -19h940q39 0 71.5 19t52 50t19.5 69v972z" />
    <glyph glyph-name="u1F13F" unicode="P&#x20de;" 
d="M901 1081q76 0 130.5 -30t83 -81.5t28.5 -115.5q0 -65 -29 -116t-83 -80t-131 -29h-153v-241h-129v693h283zM1010 854q0 60 -34.5 93t-96.5 33h-132v-251h132q62 0 96.5 32.5t34.5 92.5zM355 1464h968q72 0 130.5 -34.5t93 -92t34.5 -127.5v-976q0 -70 -34.5 -127.5
t-93 -92t-130.5 -34.5h-968q-71 0 -129.5 34.5t-93.5 92t-35 127.5v976q0 70 35 127.5t93.5 92t129.5 34.5zM1452 1208q0 38 -19.5 69t-52 50t-71.5 19h-940q-38 0 -71 -18.5t-52.5 -50t-19.5 -69.5v-972q0 -38 19.5 -69t52.5 -50t71 -19h940q39 0 71.5 19t52 50t19.5 69
v972z" />
    <glyph glyph-name="u1F140" unicode="Q&#x20de;" 
d="M1139 319h-128l-56 76q-55 -20 -116 -20q-90 0 -164 42t-118 122.5t-44 194.5q0 115 44 195.5t118 122.5t164 42t164 -42t118 -122.5t44 -195.5q0 -98 -32.5 -170t-87.5 -118zM839 480q13 0 25.5 1.5t23.5 5.5l-84 115h126l44 -60q27 32 43 80.5t16 111.5q0 82 -26 139
t-70 86.5t-98 29.5t-98 -29.5t-70 -86.5t-26 -139t26 -138.5t70 -86t98 -29.5zM355 1464h968q72 0 130.5 -34.5t93 -92t34.5 -127.5v-976q0 -70 -34.5 -127.5t-93 -92t-130.5 -34.5h-968q-71 0 -129.5 34.5t-93.5 92t-35 127.5v976q0 70 35 127.5t93.5 92t129.5 34.5z
M1452 1208q0 38 -19.5 69t-52 50t-71.5 19h-940q-38 0 -71 -18.5t-52.5 -50t-19.5 -69.5v-972q0 -38 19.5 -69t52.5 -50t71 -19h940q39 0 71.5 19t52 50t19.5 69v972z" />
    <glyph glyph-name="u1F141" unicode="R&#x20de;" 
d="M873 1081q117 0 183 -59t66 -157q0 -49 -18.5 -88t-48.5 -66t-66 -40l146 -283h-146l-128 263h-142v-263h-128v693h282zM719 747h132q64 0 100.5 29t36.5 85q0 59 -36.5 89.5t-96.5 30.5h-136v-234zM355 1464h968q72 0 130.5 -34.5t93 -92t34.5 -127.5v-976
q0 -70 -34.5 -127.5t-93 -92t-130.5 -34.5h-968q-71 0 -129.5 34.5t-93.5 92t-35 127.5v976q0 70 35 127.5t93.5 92t129.5 34.5zM1452 1208q0 38 -19.5 69t-52 50t-71.5 19h-940q-38 0 -71 -18.5t-52.5 -50t-19.5 -69.5v-972q0 -38 19.5 -69t52.5 -50t71 -19h940
q39 0 71.5 19t52 50t19.5 69v972z" />
    <glyph glyph-name="u1F142" unicode="S&#x20de;" 
d="M559 582h127q5 -48 48 -77.5t110 -29.5t106.5 28t39.5 75q0 36 -27 58.5t-88 37.5l-117 26q-88 20 -134 68t-46 121q0 61 33.5 107.5t93.5 72.5t139 26q77 0 136.5 -25.5t93.5 -71.5t35 -106h-124q-4 47 -42.5 75.5t-99.5 28.5q-60 0 -97 -28t-37 -72q0 -65 100 -87
l117 -26q99 -23 146 -70t47 -124q0 -66 -34.5 -114t-98 -74t-150.5 -26q-83 0 -144.5 25.5t-96 71.5t-36.5 110zM355 1464h968q72 0 130.5 -34.5t93 -92t34.5 -127.5v-976q0 -70 -34.5 -127.5t-93 -92t-130.5 -34.5h-968q-71 0 -129.5 34.5t-93.5 92t-35 127.5v976
q0 70 35 127.5t93.5 92t129.5 34.5zM1452 1208q0 38 -19.5 69t-52 50t-71.5 19h-940q-38 0 -71 -18.5t-52.5 -50t-19.5 -69.5v-972q0 -38 19.5 -69t52.5 -50t71 -19h940q39 0 71.5 19t52 50t19.5 69v972z" />
    <glyph glyph-name="u1F143" unicode="T&#x20de;" 
d="M905 388h-132v588h-210v105h552v-105h-210v-588zM355 1464h968q72 0 130.5 -34.5t93 -92t34.5 -127.5v-976q0 -70 -34.5 -127.5t-93 -92t-130.5 -34.5h-968q-71 0 -129.5 34.5t-93.5 92t-35 127.5v976q0 70 35 127.5t93.5 92t129.5 34.5zM1452 1208q0 38 -19.5 69t-52 50
t-71.5 19h-940q-38 0 -71 -18.5t-52.5 -50t-19.5 -69.5v-972q0 -38 19.5 -69t52.5 -50t71 -19h940q39 0 71.5 19t52 50t19.5 69v972z" />
    <glyph glyph-name="u1F144" unicode="U&#x20de;" 
d="M839 482q71 0 114.5 40.5t43.5 115.5v443h130v-454q0 -75 -35.5 -132t-100 -88.5t-152.5 -31.5t-152.5 31.5t-100 88.5t-35.5 132v454h130v-443q0 -75 43.5 -115.5t114.5 -40.5zM355 1464h968q72 0 130.5 -34.5t93 -92t34.5 -127.5v-976q0 -70 -34.5 -127.5t-93 -92
t-130.5 -34.5h-968q-71 0 -129.5 34.5t-93.5 92t-35 127.5v976q0 70 35 127.5t93.5 92t129.5 34.5zM1452 1208q0 38 -19.5 69t-52 50t-71.5 19h-940q-38 0 -71 -18.5t-52.5 -50t-19.5 -69.5v-972q0 -38 19.5 -69t52.5 -50t71 -19h940q39 0 71.5 19t52 50t19.5 69v972z" />
    <glyph glyph-name="u1F145" unicode="V&#x20de;" 
d="M761 388l-250 693h151l174 -555h6l174 555h151l-250 -693h-156zM355 1464h968q72 0 130.5 -34.5t93 -92t34.5 -127.5v-976q0 -70 -34.5 -127.5t-93 -92t-130.5 -34.5h-968q-71 0 -129.5 34.5t-93.5 92t-35 127.5v976q0 70 35 127.5t93.5 92t129.5 34.5zM1452 1208
q0 38 -19.5 69t-52 50t-71.5 19h-940q-38 0 -71 -18.5t-52.5 -50t-19.5 -69.5v-972q0 -38 19.5 -69t52.5 -50t71 -19h940q39 0 71.5 19t52 50t19.5 69v972z" />
    <glyph glyph-name="u1F146" unicode="W&#x20de;" 
d="M837 889l-140 -501h-119l-195 693h143l117 -518h6l133 518h114l133 -518h6l117 518h143l-195 -693h-119l-140 501h-4zM355 1464h968q72 0 130.5 -34.5t93 -92t34.5 -127.5v-976q0 -70 -34.5 -127.5t-93 -92t-130.5 -34.5h-968q-71 0 -129.5 34.5t-93.5 92t-35 127.5v976
q0 70 35 127.5t93.5 92t129.5 34.5zM1452 1208q0 38 -19.5 69t-52 50t-71.5 19h-940q-38 0 -71 -18.5t-52.5 -50t-19.5 -69.5v-972q0 -38 19.5 -69t52.5 -50t71 -19h940q39 0 71.5 19t52 50t19.5 69v972z" />
    <glyph glyph-name="u1F147" unicode="X&#x20de;" 
d="M1153 1081l-233 -348l230 -345h-152l-161 253h-6l-163 -253h-143l229 349l-227 344h155l159 -256h6l158 256h148zM355 1464h968q72 0 130.5 -34.5t93 -92t34.5 -127.5v-976q0 -70 -34.5 -127.5t-93 -92t-130.5 -34.5h-968q-71 0 -129.5 34.5t-93.5 92t-35 127.5v976
q0 70 35 127.5t93.5 92t129.5 34.5zM1452 1208q0 38 -19.5 69t-52 50t-71.5 19h-940q-38 0 -71 -18.5t-52.5 -50t-19.5 -69.5v-972q0 -38 19.5 -69t52.5 -50t71 -19h940q39 0 71.5 19t52 50t19.5 69v972z" />
    <glyph glyph-name="u1F148" unicode="Y&#x20de;" 
d="M905 388h-131v273l-243 420h145l162 -297h5l162 297h142l-242 -418v-275zM355 1464h968q72 0 130.5 -34.5t93 -92t34.5 -127.5v-976q0 -70 -34.5 -127.5t-93 -92t-130.5 -34.5h-968q-71 0 -129.5 34.5t-93.5 92t-35 127.5v976q0 70 35 127.5t93.5 92t129.5 34.5z
M1452 1208q0 38 -19.5 69t-52 50t-71.5 19h-940q-38 0 -71 -18.5t-52.5 -50t-19.5 -69.5v-972q0 -38 19.5 -69t52.5 -50t71 -19h940q39 0 71.5 19t52 50t19.5 69v972z" />
    <glyph glyph-name="u1F149" unicode="Z&#x20de;" 
d="M574 388v83l361 499v7h-350v104h509v-83l-360 -499v-7h370v-104h-530zM355 1464h968q72 0 130.5 -34.5t93 -92t34.5 -127.5v-976q0 -70 -34.5 -127.5t-93 -92t-130.5 -34.5h-968q-71 0 -129.5 34.5t-93.5 92t-35 127.5v976q0 70 35 127.5t93.5 92t129.5 34.5zM1452 1208
q0 38 -19.5 69t-52 50t-71.5 19h-940q-38 0 -71 -18.5t-52.5 -50t-19.5 -69.5v-972q0 -38 19.5 -69t52.5 -50t71 -19h940q39 0 71.5 19t52 50t19.5 69v972z" />
    <glyph glyph-name="u1F150" unicode="A&#x20dd;&#x25cf;" 
d="M940 690h-202l99 297h4zM637 374l67 202h270l67 -202h156l-273 766h-170l-273 -766h156zM839 -50q-127 0 -242.5 39t-212 110t-167.5 167.5t-110 212t-39 242.5t39 242.5t110 212t167.5 167.5t212 110t242.5 39t242.5 -39t212 -110t167.5 -167.5t110 -212t39 -242.5
t-39 -242.5t-110 -212t-167.5 -167.5t-212 -110t-242.5 -39z" />
    <glyph glyph-name="u1F151" unicode="B&#x20dd;&#x25cf;" 
d="M568 354h323q86 0 150 26.5t98.5 75.5t34.5 116q0 76 -45 126.5t-124 62.5v0v0q60 18 93 62.5t33 105.5q0 88 -64 139.5t-173 51.5h-326v-766zM719 1005h145q54 0 85 -26.5t31 -72.5q0 -104 -158 -104h-103v203zM719 694h155q68 0 105.5 -30.5t37.5 -86.5
q0 -55 -43.5 -81.5t-137.5 -26.5h-117v225zM839 -50q-127 0 -242.5 39t-212 110t-167.5 167.5t-110 212t-39 242.5t39 242.5t110 212t167.5 167.5t212 110t242.5 39t242.5 -39t212 -110t167.5 -167.5t110 -212t39 -242.5t-39 -242.5t-110 -212t-167.5 -167.5t-212 -110
t-242.5 -39z" />
    <glyph glyph-name="u1F152" unicode="C&#x20dd;&#x25cf;" 
d="M1014 593q-6 -33 -30.5 -61t-61.5 -44.5t-82 -16.5q-61 0 -106 32.5t-70.5 91.5t-25.5 139q0 79 25.5 138.5t70.5 92.5t106 33q46 0 84 -18t63 -48t31 -66h155q-10 80 -54 139.5t-116 92.5t-165 33q-107 0 -187.5 -50t-125 -139.5t-44.5 -207.5t44.5 -207t125 -139
t187.5 -50q90 0 160.5 32t115.5 89t57 134h-157zM839 -50q-127 0 -242.5 39t-212 110t-167.5 167.5t-110 212t-39 242.5t39 242.5t110 212t167.5 167.5t212 110t242.5 39t242.5 -39t212 -110t167.5 -167.5t110 -212t39 -242.5t-39 -242.5t-110 -212t-167.5 -167.5t-212 -110
t-242.5 -39z" />
    <glyph glyph-name="u1F153" unicode="D&#x20dd;&#x25cf;" 
d="M560 1120v-766h285q175 0 266 98t91 286t-90.5 285t-266.5 97h-285zM712 997h115q111 0 165 -64.5t54 -196.5t-54 -195.5t-165 -63.5h-115v520zM839 -50q-127 0 -242.5 39t-212 110t-167.5 167.5t-110 212t-39 242.5t39 242.5t110 212t167.5 167.5t212 110t242.5 39
t242.5 -39t212 -110t167.5 -167.5t110 -212t39 -242.5t-39 -242.5t-110 -212t-167.5 -167.5t-212 -110t-242.5 -39z" />
    <glyph glyph-name="u1F154" unicode="E&#x20dd;&#x25cf;" 
d="M1098 477h-361v206h339v117h-339v197h361v123h-514v-766h514v123zM839 -50q-127 0 -242.5 39t-212 110t-167.5 167.5t-110 212t-39 242.5t39 242.5t110 212t167.5 167.5t212 110t242.5 39t242.5 -39t212 -110t167.5 -167.5t110 -212t39 -242.5t-39 -242.5t-110 -212
t-167.5 -167.5t-212 -110t-242.5 -39z" />
    <glyph glyph-name="u1F155" unicode="F&#x20dd;&#x25cf;" 
d="M769 354v307h324v123h-324v212h353v124h-505v-766h152zM839 -50q-127 0 -242.5 39t-212 110t-167.5 167.5t-110 212t-39 242.5t39 242.5t110 212t167.5 167.5t212 110t242.5 39t242.5 -39t212 -110t167.5 -167.5t110 -212t39 -242.5t-39 -242.5t-110 -212t-167.5 -167.5
t-212 -110t-242.5 -39z" />
    <glyph glyph-name="u1F156" unicode="G&#x20dd;&#x25cf;" 
d="M1016 620q0 -38 -19.5 -70.5t-58.5 -52t-96 -19.5q-92 0 -147.5 68t-55.5 188q0 121 55.5 189t147.5 68q73 0 120 -30.5t53 -73.5h157q-11 71 -55.5 126t-115.5 86t-160 31q-107 0 -188.5 -50t-127 -139t-45.5 -207t45 -207t126 -138.5t188 -49.5q102 0 175 40.5
t112 108.5t39 152v134h-312v-127h163v-27zM839 -50q-127 0 -242.5 39t-212 110t-167.5 167.5t-110 212t-39 242.5t39 242.5t110 212t167.5 167.5t212 110t242.5 39t242.5 -39t212 -110t167.5 -167.5t110 -212t39 -242.5t-39 -242.5t-110 -212t-167.5 -167.5t-212 -110
t-242.5 -39z" />
    <glyph glyph-name="u1F157" unicode="H&#x20dd;&#x25cf;" 
d="M1161 354v766h-151v-312h-341v312h-152v-766h152v330h341v-330h151zM839 -50q-127 0 -242.5 39t-212 110t-167.5 167.5t-110 212t-39 242.5t39 242.5t110 212t167.5 167.5t212 110t242.5 39t242.5 -39t212 -110t167.5 -167.5t110 -212t39 -242.5t-39 -242.5t-110 -212
t-167.5 -167.5t-212 -110t-242.5 -39z" />
    <glyph glyph-name="u1F158" unicode="I&#x20dd;&#x25cf;" 
d="M915 354v766h-152v-766h152zM839 -50q-127 0 -242.5 39t-212 110t-167.5 167.5t-110 212t-39 242.5t39 242.5t110 212t167.5 167.5t212 110t242.5 39t242.5 -39t212 -110t167.5 -167.5t110 -212t39 -242.5t-39 -242.5t-110 -212t-167.5 -167.5t-212 -110t-242.5 -39z" />
    <glyph glyph-name="u1F159" unicode="J&#x20dd;&#x25cf;" 
d="M545 570q0 -70 31.5 -121.5t89 -80t133.5 -28.5q125 0 194 67t69 188v525h-153v-530q0 -119 -112 -119q-46 0 -74 27.5t-29 71.5h-149zM839 -50q-127 0 -242.5 39t-212 110t-167.5 167.5t-110 212t-39 242.5t39 242.5t110 212t167.5 167.5t212 110t242.5 39t242.5 -39
t212 -110t167.5 -167.5t110 -212t39 -242.5t-39 -242.5t-110 -212t-167.5 -167.5t-212 -110t-242.5 -39z" />
    <glyph glyph-name="u1F15A" unicode="&#x212a;&#x20dd;&#x25cf;" 
d="M1187 1120h-172l-311 -343v0v343h-152v-766h152v252l79 85l230 -337h185l-304 436zM839 -50q-127 0 -242.5 39t-212 110t-167.5 167.5t-110 212t-39 242.5t39 242.5t110 212t167.5 167.5t212 110t242.5 39t242.5 -39t212 -110t167.5 -167.5t110 -212t39 -242.5
t-39 -242.5t-110 -212t-167.5 -167.5t-212 -110t-242.5 -39z" />
    <glyph glyph-name="u1F15B" unicode="L&#x20dd;&#x25cf;" 
d="M1129 481h-344v639h-153v-766h497v127zM839 -50q-127 0 -242.5 39t-212 110t-167.5 167.5t-110 212t-39 242.5t39 242.5t110 212t167.5 167.5t212 110t242.5 39t242.5 -39t212 -110t167.5 -167.5t110 -212t39 -242.5t-39 -242.5t-110 -212t-167.5 -167.5t-212 -110
t-242.5 -39z" />
    <glyph glyph-name="u1F15C" unicode="M&#x20dd;&#x25cf;" 
d="M590 354v521v0l196 -495h106l195 491v0v-517h139v766h-152l-236 -582v0l-233 582h-153v-766h138zM839 -50q-127 0 -242.5 39t-212 110t-167.5 167.5t-110 212t-39 242.5t39 242.5t110 212t167.5 167.5t212 110t242.5 39t242.5 -39t212 -110t167.5 -167.5t110 -212
t39 -242.5t-39 -242.5t-110 -212t-167.5 -167.5t-212 -110t-242.5 -39z" />
    <glyph glyph-name="u1F15D" unicode="N&#x20dd;&#x25cf;" 
d="M667 354v523v0l359 -523h131v766h-146v-524v0l-361 524h-129v-766h146zM839 -50q-127 0 -242.5 39t-212 110t-167.5 167.5t-110 212t-39 242.5t39 242.5t110 212t167.5 167.5t212 110t242.5 39t242.5 -39t212 -110t167.5 -167.5t110 -212t39 -242.5t-39 -242.5t-110 -212
t-167.5 -167.5t-212 -110t-242.5 -39z" />
    <glyph glyph-name="u1F15E" unicode="O&#x20dd;&#x25cf;" 
d="M839 465q-57 0 -103.5 31t-74.5 91t-28 147q0 88 28 148t74.5 91t103.5 31t103.5 -31t74.5 -91t28 -148q0 -87 -28 -147t-74.5 -91t-103.5 -31zM839 338q100 0 181.5 46.5t130 135t48.5 214.5q0 127 -48.5 215.5t-130 135t-181.5 46.5t-181.5 -46.5t-130 -135
t-48.5 -215.5q0 -126 48.5 -214.5t130 -135t181.5 -46.5zM839 -50q-127 0 -242.5 39t-212 110t-167.5 167.5t-110 212t-39 242.5t39 242.5t110 212t167.5 167.5t212 110t242.5 39t242.5 -39t212 -110t167.5 -167.5t110 -212t39 -242.5t-39 -242.5t-110 -212t-167.5 -167.5
t-212 -110t-242.5 -39z" />
    <glyph glyph-name="u1F15F" unicode="P&#x20dd;&#x25cf;" 
d="M899 1120h-314v-766h152v263h161q81 0 142.5 31t95.5 87.5t34 131.5t-34 132t-95 89t-142 32zM1014 867q0 -62 -36.5 -97t-101.5 -35h-139v264h139q66 0 102 -35t36 -97zM839 -50q-127 0 -242.5 39t-212 110t-167.5 167.5t-110 212t-39 242.5t39 242.5t110 212
t167.5 167.5t212 110t242.5 39t242.5 -39t212 -110t167.5 -167.5t110 -212t39 -242.5t-39 -242.5t-110 -212t-167.5 -167.5t-212 -110t-242.5 -39z" />
    <glyph glyph-name="u1F160" unicode="Q&#x20dd;&#x25cf;" 
d="M1179 280l-106 142q58 50 92 129t34 183q0 127 -48.5 215.5t-130 135t-181.5 46.5t-181.5 -46.5t-130 -135t-48.5 -215.5q0 -126 48.5 -214.5t130 -135t181.5 -46.5q66 0 125 21l57 -79h158zM839 465q-57 0 -103.5 31t-74.5 91t-28 147q0 88 28 148t74.5 91t103.5 31
t103.5 -31t74.5 -91t28 -148q0 -64 -15.5 -113t-42.5 -83l-46 62h-152l94 -130q-10 -2 -21.5 -3.5t-22.5 -1.5zM839 -50q-127 0 -242.5 39t-212 110t-167.5 167.5t-110 212t-39 242.5t39 242.5t110 212t167.5 167.5t212 110t242.5 39t242.5 -39t212 -110t167.5 -167.5
t110 -212t39 -242.5t-39 -242.5t-110 -212t-167.5 -167.5t-212 -110t-242.5 -39z" />
    <glyph glyph-name="u1F161" unicode="R&#x20dd;&#x25cf;" 
d="M707 755v245h143q66 0 103.5 -33t37.5 -92q0 -57 -37.5 -88.5t-106.5 -31.5h-140zM870 1120h-313v-766h150v287h147l139 -287h173l-161 310q65 24 103.5 82t38.5 133q0 112 -74.5 176.5t-202.5 64.5zM839 -50q-127 0 -242.5 39t-212 110t-167.5 167.5t-110 212t-39 242.5
t39 242.5t110 212t167.5 167.5t212 110t242.5 39t242.5 -39t212 -110t167.5 -167.5t110 -212t39 -242.5t-39 -242.5t-110 -212t-167.5 -167.5t-212 -110t-242.5 -39z" />
    <glyph glyph-name="u1F162" unicode="S&#x20dd;&#x25cf;" 
d="M528 576q2 -73 40.5 -126t106.5 -82t161 -29q97 0 167 29t108.5 82.5t38.5 126.5q0 87 -52.5 140t-163.5 78l-127 28q-105 23 -105 90q0 47 38.5 75.5t102.5 28.5t105 -31t46 -82h145q-1 69 -38.5 121.5t-103.5 81.5t-153 29t-153.5 -29t-104 -81t-37.5 -121
q0 -81 51 -135t149 -76l127 -30q65 -14 93.5 -37t28.5 -61q0 -50 -41.5 -78.5t-112.5 -28.5t-116.5 32t-49.5 85h-150zM839 -50q-127 0 -242.5 39t-212 110t-167.5 167.5t-110 212t-39 242.5t39 242.5t110 212t167.5 167.5t212 110t242.5 39t242.5 -39t212 -110
t167.5 -167.5t110 -212t39 -242.5t-39 -242.5t-110 -212t-167.5 -167.5t-212 -110t-242.5 -39z" />
    <glyph glyph-name="u1F163" unicode="T&#x20dd;&#x25cf;" 
d="M915 334v641h229v125h-610v-125h229v-641h152zM839 -50q-127 0 -242.5 39t-212 110t-167.5 167.5t-110 212t-39 242.5t39 242.5t110 212t167.5 167.5t212 110t242.5 39t242.5 -39t212 -110t167.5 -167.5t110 -212t39 -242.5t-39 -242.5t-110 -212t-167.5 -167.5
t-212 -110t-242.5 -39z" />
    <glyph glyph-name="u1F164" unicode="U&#x20dd;&#x25cf;" 
d="M839 448q-79 0 -123 43.5t-44 120.5v488h-153v-500q0 -84 39.5 -147t111.5 -98t169 -35q96 0 168 35t112 98t40 147v500h-153v-488q0 -77 -44.5 -120.5t-122.5 -43.5zM839 -50q-127 0 -242.5 39t-212 110t-167.5 167.5t-110 212t-39 242.5t39 242.5t110 212t167.5 167.5
t212 110t242.5 39t242.5 -39t212 -110t167.5 -167.5t110 -212t39 -242.5t-39 -242.5t-110 -212t-167.5 -167.5t-212 -110t-242.5 -39z" />
    <glyph glyph-name="u1F165" unicode="V&#x20dd;&#x25cf;" 
d="M925 334l277 766h-175l-186 -608h-4l-186 608h-175l277 -766h172zM839 -50q-127 0 -242.5 39t-212 110t-167.5 167.5t-110 212t-39 242.5t39 242.5t110 212t167.5 167.5t212 110t242.5 39t242.5 -39t212 -110t167.5 -167.5t110 -212t39 -242.5t-39 -242.5t-110 -212
t-167.5 -167.5t-212 -110t-242.5 -39z" />
    <glyph glyph-name="u1F166" unicode="W&#x20dd;&#x25cf;" 
d="M837 875h4l151 -541h139l216 766h-168l-122 -566h-4l-145 566h-138l-145 -566h-4l-122 566h-168l217 -766h138zM839 -50q-127 0 -242.5 39t-212 110t-167.5 167.5t-110 212t-39 242.5t39 242.5t110 212t167.5 167.5t212 110t242.5 39t242.5 -39t212 -110t167.5 -167.5
t110 -212t39 -242.5t-39 -242.5t-110 -212t-167.5 -167.5t-212 -110t-242.5 -39z" />
    <glyph glyph-name="u1F167" unicode="X&#x20dd;&#x25cf;" 
d="M1191 1120h-174l-168 -279h-4l-173 279h-182l250 -380l-253 -386h170l175 275h3l175 -275h177l-254 381zM839 -50q-127 0 -242.5 39t-212 110t-167.5 167.5t-110 212t-39 242.5t39 242.5t110 212t167.5 167.5t212 110t242.5 39t242.5 -39t212 -110t167.5 -167.5t110 -212
t39 -242.5t-39 -242.5t-110 -212t-167.5 -167.5t-212 -110t-242.5 -39z" />
    <glyph glyph-name="u1F168" unicode="Y&#x20dd;&#x25cf;" 
d="M763 349h152v302l271 464h-169l-176 -324h-4l-176 324h-169l271 -464v-302zM839 -50q-127 0 -242.5 39t-212 110t-167.5 167.5t-110 212t-39 242.5t39 242.5t110 212t167.5 167.5t212 110t242.5 39t242.5 -39t212 -110t167.5 -167.5t110 -212t39 -242.5t-39 -242.5
t-110 -212t-167.5 -167.5t-212 -110t-242.5 -39z" />
    <glyph glyph-name="u1F169" unicode="Z&#x20dd;&#x25cf;" 
d="M544 354h590v124h-405v0l394 545v97h-567v-124h383v-1l-395 -544v-97zM839 -50q-127 0 -242.5 39t-212 110t-167.5 167.5t-110 212t-39 242.5t39 242.5t110 212t167.5 167.5t212 110t242.5 39t242.5 -39t212 -110t167.5 -167.5t110 -212t39 -242.5t-39 -242.5t-110 -212
t-167.5 -167.5t-212 -110t-242.5 -39z" />
    <glyph glyph-name="u1F170" unicode="A&#x20de;&#x25a0;" 
d="M940 670h-202l99 297h4zM637 354l67 202h270l67 -202h156l-273 766h-170l-273 -766h156zM355 1464h968q72 0 130.5 -34.5t93 -92t34.5 -127.5v-976q0 -70 -34.5 -127.5t-93 -92t-130.5 -34.5h-968q-71 0 -129.5 34.5t-93.5 92t-35 127.5v976q0 70 35 127.5t93.5 92
t129.5 34.5z" />
    <glyph glyph-name="u1F171" unicode="B&#x20de;&#x25a0;" 
d="M568 354h323q84 0 147.5 25.5t99.5 74.5t36 118q0 82 -48.5 130t-120.5 59v0v0q56 17 91 59t35 109q0 89 -65 140t-172 51h-326v-766zM719 1005h145q55 0 85.5 -27t30.5 -72q0 -52 -37.5 -78t-120.5 -26h-103v203zM719 694h155q70 0 106.5 -31t36.5 -86q0 -54 -42.5 -81
t-138.5 -27h-117v225zM355 1464h968q72 0 130.5 -34.5t93 -92t34.5 -127.5v-976q0 -70 -34.5 -127.5t-93 -92t-130.5 -34.5h-968q-71 0 -129.5 34.5t-93.5 92t-35 127.5v976q0 70 35 127.5t93.5 92t129.5 34.5z" />
    <glyph glyph-name="u1F172" unicode="C&#x20de;&#x25a0;" 
d="M1014 593q-6 -33 -30.5 -61t-61.5 -44.5t-82 -16.5q-61 0 -106 32.5t-70.5 91.5t-25.5 139q0 79 25.5 138.5t70.5 92.5t106 33q46 0 84 -18t63 -48t31 -66h155q-10 80 -54 139.5t-116 92.5t-165 33q-107 0 -187.5 -50t-125 -139.5t-44.5 -207.5t44.5 -207t125 -139
t187.5 -50q90 0 160.5 32t115.5 89t57 134h-157zM355 1464h968q72 0 130.5 -34.5t93 -92t34.5 -127.5v-976q0 -70 -34.5 -127.5t-93 -92t-130.5 -34.5h-968q-71 0 -129.5 34.5t-93.5 92t-35 127.5v976q0 70 35 127.5t93.5 92t129.5 34.5z" />
    <glyph glyph-name="u1F173" unicode="D&#x20de;&#x25a0;" 
d="M537 1120v-766h285q180 0 268.5 100.5t88.5 283.5t-88 282.5t-269 99.5h-285zM689 997h115q113 0 166 -65.5t53 -195.5t-53 -194.5t-166 -64.5h-115v520zM355 1464h968q72 0 130.5 -34.5t93 -92t34.5 -127.5v-976q0 -70 -34.5 -127.5t-93 -92t-130.5 -34.5h-968
q-71 0 -129.5 34.5t-93.5 92t-35 127.5v976q0 70 35 127.5t93.5 92t129.5 34.5z" />
    <glyph glyph-name="u1F174" unicode="E&#x20de;&#x25a0;" 
d="M1098 477h-361v206h339v117h-339v197h361v123h-514v-766h514v123zM355 1464h968q72 0 130.5 -34.5t93 -92t34.5 -127.5v-976q0 -70 -34.5 -127.5t-93 -92t-130.5 -34.5h-968q-71 0 -129.5 34.5t-93.5 92t-35 127.5v976q0 70 35 127.5t93.5 92t129.5 34.5z" />
    <glyph glyph-name="u1F175" unicode="F&#x20de;&#x25a0;" 
d="M769 354v307h324v123h-324v212h353v124h-505v-766h152zM355 1464h968q72 0 130.5 -34.5t93 -92t34.5 -127.5v-976q0 -70 -34.5 -127.5t-93 -92t-130.5 -34.5h-968q-71 0 -129.5 34.5t-93.5 92t-35 127.5v976q0 70 35 127.5t93.5 92t129.5 34.5z" />
    <glyph glyph-name="u1F176" unicode="G&#x20de;&#x25a0;" 
d="M1016 620q0 -38 -19.5 -70.5t-58.5 -52t-96 -19.5q-92 0 -147.5 68t-55.5 188q0 121 55.5 189t147.5 68q73 0 120 -30.5t53 -73.5h157q-11 71 -55.5 126t-115.5 86t-160 31q-107 0 -188.5 -50t-127 -139t-45.5 -207t45 -207t126 -138.5t188 -49.5q102 0 175 40.5
t112 108.5t39 152v134h-312v-127h163v-27zM355 1464h968q72 0 130.5 -34.5t93 -92t34.5 -127.5v-976q0 -70 -34.5 -127.5t-93 -92t-130.5 -34.5h-968q-71 0 -129.5 34.5t-93.5 92t-35 127.5v976q0 70 35 127.5t93.5 92t129.5 34.5z" />
    <glyph glyph-name="u1F177" unicode="H&#x20de;&#x25a0;" 
d="M1161 354v766h-151v-312h-341v312h-152v-766h152v330h341v-330h151zM355 1464h968q72 0 130.5 -34.5t93 -92t34.5 -127.5v-976q0 -70 -34.5 -127.5t-93 -92t-130.5 -34.5h-968q-71 0 -129.5 34.5t-93.5 92t-35 127.5v976q0 70 35 127.5t93.5 92t129.5 34.5z" />
    <glyph glyph-name="u1F178" unicode="I&#x20de;&#x25a0;" 
d="M915 354v766h-152v-766h152zM355 1464h968q72 0 130.5 -34.5t93 -92t34.5 -127.5v-976q0 -70 -34.5 -127.5t-93 -92t-130.5 -34.5h-968q-71 0 -129.5 34.5t-93.5 92t-35 127.5v976q0 70 35 127.5t93.5 92t129.5 34.5z" />
    <glyph glyph-name="u1F179" unicode="J&#x20de;&#x25a0;" 
d="M545 570q0 -64 29 -116t86 -83t139 -31q122 0 192.5 65t70.5 190v525h-153v-530q0 -58 -28 -88.5t-84 -30.5q-46 0 -74 27.5t-29 71.5h-149zM355 1464h968q72 0 130.5 -34.5t93 -92t34.5 -127.5v-976q0 -70 -34.5 -127.5t-93 -92t-130.5 -34.5h-968q-71 0 -129.5 34.5
t-93.5 92t-35 127.5v976q0 70 35 127.5t93.5 92t129.5 34.5z" />
    <glyph glyph-name="u1F17A" unicode="&#x212a;&#x20de;&#x25a0;" 
d="M1187 1120h-172l-311 -343v0v343h-152v-766h152v252l79 85l230 -337h185q-73 107 -151 218t-153 218zM355 1464h968q72 0 130.5 -34.5t93 -92t34.5 -127.5v-976q0 -70 -34.5 -127.5t-93 -92t-130.5 -34.5h-968q-71 0 -129.5 34.5t-93.5 92t-35 127.5v976q0 70 35 127.5
t93.5 92t129.5 34.5z" />
    <glyph glyph-name="u1F17B" unicode="L&#x20de;&#x25a0;" 
d="M1139 481h-344v639h-153v-766h497v127zM355 1464h968q72 0 130.5 -34.5t93 -92t34.5 -127.5v-976q0 -70 -34.5 -127.5t-93 -92t-130.5 -34.5h-968q-71 0 -129.5 34.5t-93.5 92t-35 127.5v976q0 70 35 127.5t93.5 92t129.5 34.5z" />
    <glyph glyph-name="u1F17C" unicode="M&#x20de;&#x25a0;" 
d="M590 354v521v0l196 -495h106l195 491v0v-517h139v766h-152l-236 -582v0l-233 582h-153v-766h138zM355 1464h968q72 0 130.5 -34.5t93 -92t34.5 -127.5v-976q0 -70 -34.5 -127.5t-93 -92t-130.5 -34.5h-968q-71 0 -129.5 34.5t-93.5 92t-35 127.5v976q0 70 35 127.5
t93.5 92t129.5 34.5z" />
    <glyph glyph-name="u1F17D" unicode="N&#x20de;&#x25a0;" 
d="M667 354v523v0l359 -523h131v766h-146v-524v0l-361 524h-129v-766h146zM355 1464h968q72 0 130.5 -34.5t93 -92t34.5 -127.5v-976q0 -70 -34.5 -127.5t-93 -92t-130.5 -34.5h-968q-71 0 -129.5 34.5t-93.5 92t-35 127.5v976q0 70 35 127.5t93.5 92t129.5 34.5z" />
    <glyph glyph-name="u1F17E" unicode="O&#x20de;&#x25a0;" 
d="M839 465q-57 0 -103.5 31t-74.5 91t-28 147q0 88 28 148t74.5 91t103.5 31t103.5 -31t74.5 -91t28 -148q0 -87 -28 -147t-74.5 -91t-103.5 -31zM839 338q100 0 181.5 46.5t130 135t48.5 214.5q0 127 -48.5 215.5t-130 135t-181.5 46.5t-181.5 -46.5t-130 -135
t-48.5 -215.5q0 -126 48.5 -214.5t130 -135t181.5 -46.5zM355 1464h968q72 0 130.5 -34.5t93 -92t34.5 -127.5v-976q0 -70 -34.5 -127.5t-93 -92t-130.5 -34.5h-968q-71 0 -129.5 34.5t-93.5 92t-35 127.5v976q0 70 35 127.5t93.5 92t129.5 34.5z" />
    <glyph glyph-name="u1F17F" unicode="P&#x20de;&#x25a0;" 
d="M899 1120h-314v-766h152v263h161q85 0 146 32.5t93.5 89t32.5 128.5t-32.5 129.5t-93 90.5t-145.5 33zM1014 867q0 -62 -36.5 -97t-101.5 -35h-139v264h139q65 0 101.5 -34t36.5 -98zM355 1464h968q72 0 130.5 -34.5t93 -92t34.5 -127.5v-976q0 -70 -34.5 -127.5t-93 -92
t-130.5 -34.5h-968q-71 0 -129.5 34.5t-93.5 92t-35 127.5v976q0 70 35 127.5t93.5 92t129.5 34.5z" />
    <glyph glyph-name="u1F180" unicode="Q&#x20de;&#x25a0;" 
d="M1179 280l-106 142q58 50 92 129t34 183q0 127 -48.5 215.5t-130 135t-181.5 46.5t-181.5 -46.5t-130 -135t-48.5 -215.5q0 -126 48.5 -214.5t130 -135t181.5 -46.5q66 0 125 21l57 -79h158zM839 465q-57 0 -103.5 31t-74.5 91t-28 147q0 88 28 148t74.5 91t103.5 31
t103.5 -31t74.5 -91t28 -148q0 -64 -15.5 -113t-42.5 -83l-46 62h-152l94 -130q-10 -2 -21.5 -3.5t-22.5 -1.5zM355 1464h968q72 0 130.5 -34.5t93 -92t34.5 -127.5v-976q0 -70 -34.5 -127.5t-93 -92t-130.5 -34.5h-968q-71 0 -129.5 34.5t-93.5 92t-35 127.5v976
q0 70 35 127.5t93.5 92t129.5 34.5z" />
    <glyph glyph-name="u1F181" unicode="R&#x20de;&#x25a0;" 
d="M707 755v245h143q64 0 102.5 -32t38.5 -93q0 -59 -38 -89.5t-106 -30.5h-140zM870 1120h-313v-766h150v287h147l139 -287h173l-161 310q59 22 100.5 77t41.5 138q0 110 -73 175.5t-204 65.5zM355 1464h968q72 0 130.5 -34.5t93 -92t34.5 -127.5v-976q0 -70 -34.5 -127.5
t-93 -92t-130.5 -34.5h-968q-71 0 -129.5 34.5t-93.5 92t-35 127.5v976q0 70 35 127.5t93.5 92t129.5 34.5z" />
    <glyph glyph-name="u1F182" unicode="S&#x20de;&#x25a0;" 
d="M528 576q2 -73 40.5 -126t106.5 -82t161 -29q97 0 167 29t108.5 82.5t38.5 126.5q0 87 -52.5 140t-163.5 78l-127 28q-105 23 -105 90q0 47 38.5 75.5t102.5 28.5t105 -31t46 -82h145q-1 69 -38.5 121.5t-103.5 81.5t-153 29t-153.5 -29t-104 -81t-37.5 -121
q0 -81 51 -135t149 -76l127 -30q65 -14 93.5 -37t28.5 -61q0 -50 -41.5 -78.5t-112.5 -28.5t-116.5 32t-49.5 85h-150zM355 1464h968q72 0 130.5 -34.5t93 -92t34.5 -127.5v-976q0 -70 -34.5 -127.5t-93 -92t-130.5 -34.5h-968q-71 0 -129.5 34.5t-93.5 92t-35 127.5v976
q0 70 35 127.5t93.5 92t129.5 34.5z" />
    <glyph glyph-name="u1F183" unicode="T&#x20de;&#x25a0;" 
d="M915 354v641h229v125h-610v-125h229v-641h152zM355 1464h968q72 0 130.5 -34.5t93 -92t34.5 -127.5v-976q0 -70 -34.5 -127.5t-93 -92t-130.5 -34.5h-968q-71 0 -129.5 34.5t-93.5 92t-35 127.5v976q0 70 35 127.5t93.5 92t129.5 34.5z" />
    <glyph glyph-name="u1F184" unicode="U&#x20de;&#x25a0;" 
d="M839 468q-79 0 -123 43.5t-44 120.5v488h-153v-500q0 -84 39.5 -147t111.5 -98t169 -35q96 0 168 35t112 98t40 147v500h-153v-488q0 -77 -44.5 -120.5t-122.5 -43.5zM355 1464h968q72 0 130.5 -34.5t93 -92t34.5 -127.5v-976q0 -70 -34.5 -127.5t-93 -92t-130.5 -34.5
h-968q-71 0 -129.5 34.5t-93.5 92t-35 127.5v976q0 70 35 127.5t93.5 92t129.5 34.5z" />
    <glyph glyph-name="u1F185" unicode="V&#x20de;&#x25a0;" 
d="M925 354l277 766h-175l-186 -608h-4l-186 608h-175l277 -766h172zM355 1464h968q72 0 130.5 -34.5t93 -92t34.5 -127.5v-976q0 -70 -34.5 -127.5t-93 -92t-130.5 -34.5h-968q-71 0 -129.5 34.5t-93.5 92t-35 127.5v976q0 70 35 127.5t93.5 92t129.5 34.5z" />
    <glyph glyph-name="u1F186" unicode="W&#x20de;&#x25a0;" 
d="M837 895h4l151 -541h139l216 766h-168l-122 -566h-4l-145 566h-138l-145 -566h-4l-122 566h-168l217 -766h138zM355 1464h968q72 0 130.5 -34.5t93 -92t34.5 -127.5v-976q0 -70 -34.5 -127.5t-93 -92t-130.5 -34.5h-968q-71 0 -129.5 34.5t-93.5 92t-35 127.5v976
q0 70 35 127.5t93.5 92t129.5 34.5z" />
    <glyph glyph-name="u1F187" unicode="X&#x20de;&#x25a0;" 
d="M1191 1120h-174l-168 -279h-4l-173 279h-182l250 -380l-253 -386h170l175 275h3l175 -275h177l-254 381zM355 1464h968q72 0 130.5 -34.5t93 -92t34.5 -127.5v-976q0 -70 -34.5 -127.5t-93 -92t-130.5 -34.5h-968q-71 0 -129.5 34.5t-93.5 92t-35 127.5v976
q0 70 35 127.5t93.5 92t129.5 34.5z" />
    <glyph glyph-name="u1F188" unicode="Y&#x20de;&#x25a0;" 
d="M763 354h152v302l271 464h-169l-176 -324h-4l-176 324h-169l271 -464v-302zM355 1464h968q72 0 130.5 -34.5t93 -92t34.5 -127.5v-976q0 -70 -34.5 -127.5t-93 -92t-130.5 -34.5h-968q-71 0 -129.5 34.5t-93.5 92t-35 127.5v976q0 70 35 127.5t93.5 92t129.5 34.5z" />
    <glyph glyph-name="u1F189" unicode="Z&#x20de;&#x25a0;" 
d="M544 354h590v124h-405v0l394 545v97h-567v-124h383v-1l-395 -544v-97zM355 1464h968q72 0 130.5 -34.5t93 -92t34.5 -127.5v-976q0 -70 -34.5 -127.5t-93 -92t-130.5 -34.5h-968q-71 0 -129.5 34.5t-93.5 92t-35 127.5v976q0 70 35 127.5t93.5 92t129.5 34.5z" />
    <glyph glyph-name="plus_uni20DD.liga" unicode="&#x2b;&#x20dd;" 
d="M893 682v-217h-108v217h-212v102h212v209h108v-209h212v-102h-212zM839 78q107 0 203 32.5t175 91.5t136.5 139t89 176.5t31.5 202.5t-31.5 202.5t-89 176.5t-136.5 139t-175 91.5t-203 32.5t-203 -32.5t-175 -91.5t-136.5 -139t-89 -176.5t-31.5 -202.5t31.5 -202.5
t89 -176.5t136.5 -139t175 -91.5t203 -32.5zM839 -50q-127 0 -242.5 39t-212 110t-167.5 167.5t-110 212t-39 242.5t39 242.5t110 212t167.5 167.5t212 110t242.5 39t242.5 -39t212 -110t167.5 -167.5t110 -212t39 -242.5t-39 -242.5t-110 -212t-167.5 -167.5t-212 -110
t-242.5 -39z" />
    <glyph glyph-name="minus_uni20DD.liga" unicode="&#x2212;&#x20dd;" 
d="M1094 677h-510v104h510v-104zM839 78q107 0 203 32.5t175 91.5t136.5 139t89 176.5t31.5 202.5t-31.5 202.5t-89 176.5t-136.5 139t-175 91.5t-203 32.5t-203 -32.5t-175 -91.5t-136.5 -139t-89 -176.5t-31.5 -202.5t31.5 -202.5t89 -176.5t136.5 -139t175 -91.5
t203 -32.5zM839 -50q-127 0 -242.5 39t-212 110t-167.5 167.5t-110 212t-39 242.5t39 242.5t110 212t167.5 167.5t212 110t242.5 39t242.5 -39t212 -110t167.5 -167.5t110 -212t39 -242.5t-39 -242.5t-110 -212t-167.5 -167.5t-212 -110t-242.5 -39z" />
    <glyph glyph-name="multiply_uni20DD.liga" unicode="&#xd7;&#x20dd;" 
d="M839 802l163 156l77 -73l-163 -156l163 -156l-77 -73l-163 156l-163 -156l-77 73l163 156l-163 156l77 73zM839 78q107 0 203 32.5t175 91.5t136.5 139t89 176.5t31.5 202.5t-31.5 202.5t-89 176.5t-136.5 139t-175 91.5t-203 32.5t-203 -32.5t-175 -91.5t-136.5 -139
t-89 -176.5t-31.5 -202.5t31.5 -202.5t89 -176.5t136.5 -139t175 -91.5t203 -32.5zM839 -50q-127 0 -242.5 39t-212 110t-167.5 167.5t-110 212t-39 242.5t39 242.5t110 212t167.5 167.5t212 110t242.5 39t242.5 -39t212 -110t167.5 -167.5t110 -212t39 -242.5t-39 -242.5
t-110 -212t-167.5 -167.5t-212 -110t-242.5 -39z" />
    <glyph glyph-name="divide_uni20DD.liga" unicode="&#xf7;&#x20dd;" 
d="M1094 683h-510v91h510v-91zM760 934q0 34 22.5 55t55.5 21q35 0 58.5 -21t23.5 -55q0 -32 -23.5 -52.5t-58.5 -20.5q-33 0 -55.5 20.5t-22.5 52.5zM760 527q0 34 22.5 55t56.5 21t57.5 -21t23.5 -55q0 -31 -23.5 -52t-57.5 -21t-56.5 21t-22.5 52zM839 78q107 0 203 32.5
t175 91.5t136.5 139t89 176.5t31.5 202.5t-31.5 202.5t-89 176.5t-136.5 139t-175 91.5t-203 32.5t-203 -32.5t-175 -91.5t-136.5 -139t-89 -176.5t-31.5 -202.5t31.5 -202.5t89 -176.5t136.5 -139t175 -91.5t203 -32.5zM839 -50q-127 0 -242.5 39t-212 110t-167.5 167.5
t-110 212t-39 242.5t39 242.5t110 212t167.5 167.5t212 110t242.5 39t242.5 -39t212 -110t167.5 -167.5t110 -212t39 -242.5t-39 -242.5t-110 -212t-167.5 -167.5t-212 -110t-242.5 -39z" />
    <glyph glyph-name="equal_uni20DD.liga" unicode="&#x3d;&#x20dd;" 
d="M1080 567h-482v95h482v-95zM1080 795h-482v96h482v-96zM839 78q107 0 203 32.5t175 91.5t136.5 139t89 176.5t31.5 202.5t-31.5 202.5t-89 176.5t-136.5 139t-175 91.5t-203 32.5t-203 -32.5t-175 -91.5t-136.5 -139t-89 -176.5t-31.5 -202.5t31.5 -202.5t89 -176.5
t136.5 -139t175 -91.5t203 -32.5zM839 -50q-127 0 -242.5 39t-212 110t-167.5 167.5t-110 212t-39 242.5t39 242.5t110 212t167.5 167.5t212 110t242.5 39t242.5 -39t212 -110t167.5 -167.5t110 -212t39 -242.5t-39 -242.5t-110 -212t-167.5 -167.5t-212 -110t-242.5 -39z
" />
    <glyph glyph-name="greater_uni20DD.liga" unicode="&#x3e;&#x20dd;" 
d="M1105 764v-84l-482 -246v122l337 167v5l-337 173v124zM839 78q107 0 203 32.5t175 91.5t136.5 139t89 176.5t31.5 202.5t-31.5 202.5t-89 176.5t-136.5 139t-175 91.5t-203 32.5t-203 -32.5t-175 -91.5t-136.5 -139t-89 -176.5t-31.5 -202.5t31.5 -202.5t89 -176.5
t136.5 -139t175 -91.5t203 -32.5zM839 -50q-127 0 -242.5 39t-212 110t-167.5 167.5t-110 212t-39 242.5t39 242.5t110 212t167.5 167.5t212 110t242.5 39t242.5 -39t212 -110t167.5 -167.5t110 -212t39 -242.5t-39 -242.5t-110 -212t-167.5 -167.5t-212 -110t-242.5 -39z
" />
    <glyph glyph-name="less_uni20DD.liga" unicode="&#x3c;&#x20dd;" 
d="M574 680v84l481 261v-124l-338 -173v-5l338 -167v-122zM839 78q107 0 203 32.5t175 91.5t136.5 139t89 176.5t31.5 202.5t-31.5 202.5t-89 176.5t-136.5 139t-175 91.5t-203 32.5t-203 -32.5t-175 -91.5t-136.5 -139t-89 -176.5t-31.5 -202.5t31.5 -202.5t89 -176.5
t136.5 -139t175 -91.5t203 -32.5zM839 -50q-127 0 -242.5 39t-212 110t-167.5 167.5t-110 212t-39 242.5t39 242.5t110 212t167.5 167.5t212 110t242.5 39t242.5 -39t212 -110t167.5 -167.5t110 -212t39 -242.5t-39 -242.5t-110 -212t-167.5 -167.5t-212 -110t-242.5 -39z
" />
    <glyph glyph-name="zero_uni20DD.liga" unicode="&#x30;&#x20dd;" 
d="M1126 802h-112l-30 -139h107l-19 -90h-107l-40 -190h-98l41 190h-131l-40 -190h-98l40 190h-105l18 90h106l30 139h-101l18 90h103l38 184h97l-38 -184h130l39 184h97l-38 -184h111zM781 806l-33 -153h144l33 153h-144zM839 78q107 0 203 32.5t175 91.5t136.5 139
t89 176.5t31.5 202.5t-31.5 202.5t-89 176.5t-136.5 139t-175 91.5t-203 32.5t-203 -32.5t-175 -91.5t-136.5 -139t-89 -176.5t-31.5 -202.5t31.5 -202.5t89 -176.5t136.5 -139t175 -91.5t203 -32.5zM839 -50q-127 0 -242.5 39t-212 110t-167.5 167.5t-110 212t-39 242.5
t39 242.5t110 212t167.5 167.5t212 110t242.5 39t242.5 -39t212 -110t167.5 -167.5t110 -212t39 -242.5t-39 -242.5t-110 -212t-167.5 -167.5t-212 -110t-242.5 -39z" />
    <glyph glyph-name="triagdn_uni20DD.liga" unicode="&#x25bc;&#x20dd;" 
d="M1153 945l-314 -543l-313 543h627zM839 78q107 0 203 32.5t175 91.5t136.5 139t89 176.5t31.5 202.5t-31.5 202.5t-89 176.5t-136.5 139t-175 91.5t-203 32.5t-203 -32.5t-175 -91.5t-136.5 -139t-89 -176.5t-31.5 -202.5t31.5 -202.5t89 -176.5t136.5 -139t175 -91.5
t203 -32.5zM839 -50q-127 0 -242.5 39t-212 110t-167.5 167.5t-110 212t-39 242.5t39 242.5t110 212t167.5 167.5t212 110t242.5 39t242.5 -39t212 -110t167.5 -167.5t110 -212t39 -242.5t-39 -242.5t-110 -212t-167.5 -167.5t-212 -110t-242.5 -39z" />
    <glyph glyph-name="triagup_uni20DD.liga" unicode="&#x25b2;&#x20dd;" 
d="M1153 513h-627l313 543zM839 78q107 0 203 32.5t175 91.5t136.5 139t89 176.5t31.5 202.5t-31.5 202.5t-89 176.5t-136.5 139t-175 91.5t-203 32.5t-203 -32.5t-175 -91.5t-136.5 -139t-89 -176.5t-31.5 -202.5t31.5 -202.5t89 -176.5t136.5 -139t175 -91.5t203 -32.5z
M839 -50q-127 0 -242.5 39t-212 110t-167.5 167.5t-110 212t-39 242.5t39 242.5t110 212t167.5 167.5t212 110t242.5 39t242.5 -39t212 -110t167.5 -167.5t110 -212t39 -242.5t-39 -242.5t-110 -212t-167.5 -167.5t-212 -110t-242.5 -39z" />
    <glyph glyph-name="uni25C0_uni20DD.liga" unicode="&#x25c0;&#x20dd;" 
d="M1055 415l-543 314l543 313v-627zM839 78q107 0 203 32.5t175 91.5t136.5 139t89 176.5t31.5 202.5t-31.5 202.5t-89 176.5t-136.5 139t-175 91.5t-203 32.5t-203 -32.5t-175 -91.5t-136.5 -139t-89 -176.5t-31.5 -202.5t31.5 -202.5t89 -176.5t136.5 -139t175 -91.5
t203 -32.5zM839 -50q-127 0 -242.5 39t-212 110t-167.5 167.5t-110 212t-39 242.5t39 242.5t110 212t167.5 167.5t212 110t242.5 39t242.5 -39t212 -110t167.5 -167.5t110 -212t39 -242.5t-39 -242.5t-110 -212t-167.5 -167.5t-212 -110t-242.5 -39z" />
    <glyph glyph-name="uni25B6_uni20DD.liga" unicode="&#x25b6;&#x20dd;" 
d="M623 415v627l543 -313zM839 78q107 0 203 32.5t175 91.5t136.5 139t89 176.5t31.5 202.5t-31.5 202.5t-89 176.5t-136.5 139t-175 91.5t-203 32.5t-203 -32.5t-175 -91.5t-136.5 -139t-89 -176.5t-31.5 -202.5t31.5 -202.5t89 -176.5t136.5 -139t175 -91.5t203 -32.5z
M839 -50q-127 0 -242.5 39t-212 110t-167.5 167.5t-110 212t-39 242.5t39 242.5t110 212t167.5 167.5t212 110t242.5 39t242.5 -39t212 -110t167.5 -167.5t110 -212t39 -242.5t-39 -242.5t-110 -212t-167.5 -167.5t-212 -110t-242.5 -39z" />
    <glyph glyph-name="question_uni20DD.liga" unicode="&#x3f;&#x20dd;" 
d="M737 454q0 34 25 55.5t63 21.5q40 0 65 -21.5t25 -55.5q0 -32 -25 -53.5t-65 -21.5q-38 0 -63 21.5t-25 53.5zM763 606v33q-3 57 24.5 94.5t71.5 67.5q38 26 60 47.5t22 59.5q0 47 -32.5 68.5t-73.5 21.5q-54 0 -81.5 -31t-27.5 -75h-119q-1 56 19 95t54 63t76 34.5
t85 10.5q60 0 112.5 -20t84.5 -60t32 -101q0 -44 -15.5 -73.5t-39.5 -50.5t-50 -39q-31 -23 -50 -38.5t-27.5 -33t-8.5 -46.5v-27h-116zM839 78q107 0 203 32.5t175 91.5t136.5 139t89 176.5t31.5 202.5t-31.5 202.5t-89 176.5t-136.5 139t-175 91.5t-203 32.5t-203 -32.5
t-175 -91.5t-136.5 -139t-89 -176.5t-31.5 -202.5t31.5 -202.5t89 -176.5t136.5 -139t175 -91.5t203 -32.5zM839 -50q-127 0 -242.5 39t-212 110t-167.5 167.5t-110 212t-39 242.5t39 242.5t110 212t167.5 167.5t212 110t242.5 39t242.5 -39t212 -110t167.5 -167.5t110 -212
t39 -242.5t-39 -242.5t-110 -212t-167.5 -167.5t-212 -110t-242.5 -39z" />
    <glyph glyph-name="exclam_uni20DD.liga" unicode="&#x21;&#x20dd;" 
d="M750 454q0 34 24.5 56t64.5 22t64.5 -22t24.5 -56q0 -32 -24.5 -53.5t-64.5 -21.5t-64.5 21.5t-24.5 53.5zM769 1081h141l-15 -454h-111zM839 78q107 0 203 32.5t175 91.5t136.5 139t89 176.5t31.5 202.5t-31.5 202.5t-89 176.5t-136.5 139t-175 91.5t-203 32.5
t-203 -32.5t-175 -91.5t-136.5 -139t-89 -176.5t-31.5 -202.5t31.5 -202.5t89 -176.5t136.5 -139t175 -91.5t203 -32.5zM839 -50q-127 0 -242.5 39t-212 110t-167.5 167.5t-110 212t-39 242.5t39 242.5t110 212t167.5 167.5t212 110t242.5 39t242.5 -39t212 -110
t167.5 -167.5t110 -212t39 -242.5t-39 -242.5t-110 -212t-167.5 -167.5t-212 -110t-242.5 -39z" />
    <glyph glyph-name="uni2717_uni20DD.liga" unicode="&#x2717;&#x20dd;" 
d="M843 806l259 258l82 -81l-258 -259l258 -259l-82 -83l-259 258l-259 -258l-83 83l258 259l-259 260l82 82zM839 78q107 0 203 32.5t175 91.5t136.5 139t89 176.5t31.5 202.5t-31.5 202.5t-89 176.5t-136.5 139t-175 91.5t-203 32.5t-203 -32.5t-175 -91.5t-136.5 -139
t-89 -176.5t-31.5 -202.5t31.5 -202.5t89 -176.5t136.5 -139t175 -91.5t203 -32.5zM839 -50q-127 0 -242.5 39t-212 110t-167.5 167.5t-110 212t-39 242.5t39 242.5t110 212t167.5 167.5t212 110t242.5 39t242.5 -39t212 -110t167.5 -167.5t110 -212t39 -242.5t-39 -242.5
t-110 -212t-167.5 -167.5t-212 -110t-242.5 -39z" />
    <glyph glyph-name="uni2713_uni20DD.liga" unicode="&#x2713;&#x20dd;" 
d="M1262 950l-546 -544l-288 285l88 87l199 -198l459 458zM839 78q107 0 203 32.5t175 91.5t136.5 139t89 176.5t31.5 202.5t-31.5 202.5t-89 176.5t-136.5 139t-175 91.5t-203 32.5t-203 -32.5t-175 -91.5t-136.5 -139t-89 -176.5t-31.5 -202.5t31.5 -202.5t89 -176.5
t136.5 -139t175 -91.5t203 -32.5zM839 -50q-127 0 -242.5 39t-212 110t-167.5 167.5t-110 212t-39 242.5t39 242.5t110 212t167.5 167.5t212 110t242.5 39t242.5 -39t212 -110t167.5 -167.5t110 -212t39 -242.5t-39 -242.5t-110 -212t-167.5 -167.5t-212 -110t-242.5 -39z
" />
    <glyph glyph-name="zero_uni20DE.liga" unicode="&#x30;&#x20de;" 
d="M839 486q66 0 105 65t39 184t-39 184t-105 65t-105 -65t-39 -184t39 -184t105 -65zM839 376q-78 0 -138.5 42t-95 122t-34.5 195t34.5 195t95 122t138.5 42t138.5 -42t95 -122t34.5 -195t-34.5 -195t-95 -122t-138.5 -42zM355 1464h968q72 0 130.5 -34.5t93 -92
t34.5 -127.5v-976q0 -70 -34.5 -127.5t-93 -92t-130.5 -34.5h-968q-71 0 -129.5 34.5t-93.5 92t-35 127.5v976q0 70 35 127.5t93.5 92t129.5 34.5zM1452 1208q0 38 -19.5 69t-52 50t-71.5 19h-940q-38 0 -71 -18.5t-52.5 -50t-19.5 -69.5v-972q0 -38 19.5 -69t52.5 -50
t71 -19h940q39 0 71.5 19t52 50t19.5 69v972z" />
    <glyph glyph-name="one_uni20DE.liga" unicode="&#x31;&#x20de;" 
d="M948 388h-130v571h-6l-166 -114v117l172 119h130v-693zM355 1464h968q72 0 130.5 -34.5t93 -92t34.5 -127.5v-976q0 -70 -34.5 -127.5t-93 -92t-130.5 -34.5h-968q-71 0 -129.5 34.5t-93.5 92t-35 127.5v976q0 70 35 127.5t93.5 92t129.5 34.5zM1452 1208q0 38 -19.5 69
t-52 50t-71.5 19h-940q-38 0 -71 -18.5t-52.5 -50t-19.5 -69.5v-972q0 -38 19.5 -69t52.5 -50t71 -19h940q39 0 71.5 19t52 50t19.5 69v972z" />
    <glyph glyph-name="two_uni20DE.liga" unicode="&#x32;&#x20de;" 
d="M721 878h-124v6q0 52 26.5 100.5t80.5 79t136 30.5q73 0 127 -25.5t84 -69t30 -98.5q0 -46 -18 -83t-47 -69.5t-61 -66.5l-174 -185v-6h313v-103h-492v77l268 280q30 31 56 66t26 79q0 46 -32.5 74.5t-81.5 28.5q-56 0 -86.5 -32.5t-30.5 -76.5v-3.5v-2.5zM355 1464h968
q72 0 130.5 -34.5t93 -92t34.5 -127.5v-976q0 -70 -34.5 -127.5t-93 -92t-130.5 -34.5h-968q-71 0 -129.5 34.5t-93.5 92t-35 127.5v976q0 70 35 127.5t93.5 92t129.5 34.5zM1452 1208q0 38 -19.5 69t-52 50t-71.5 19h-940q-38 0 -71 -18.5t-52.5 -50t-19.5 -69.5v-972
q0 -38 19.5 -69t52.5 -50t71 -19h940q39 0 71.5 19t52 50t19.5 69v972z" />
    <glyph glyph-name="three_uni20DE.liga" unicode="&#x33;&#x20de;" 
d="M759 696v98h77q51 0 84.5 29.5t33.5 73.5q-1 43 -34 71t-84 28q-53 0 -85 -27t-34 -62h-122q2 51 30.5 93.5t82 68t131.5 25.5q74 0 128 -23.5t84 -64t32 -91.5q1 -49 -22 -83.5t-54.5 -54t-58.5 -23.5v-6q33 -4 69 -22t61.5 -53.5t26.5 -91.5q1 -64 -35.5 -110t-98 -71
t-136.5 -25q-80 0 -136 25.5t-86.5 68t-32.5 94.5h120q4 -38 41.5 -63.5t94.5 -26.5q63 0 101.5 32t38.5 81q-1 48 -38 79t-98 31h-81zM355 1464h968q72 0 130.5 -34.5t93 -92t34.5 -127.5v-976q0 -70 -34.5 -127.5t-93 -92t-130.5 -34.5h-968q-71 0 -129.5 34.5t-93.5 92
t-35 127.5v976q0 70 35 127.5t93.5 92t129.5 34.5zM1452 1208q0 38 -19.5 69t-52 50t-71.5 19h-940q-38 0 -71 -18.5t-52.5 -50t-19.5 -69.5v-972q0 -38 19.5 -69t52.5 -50t71 -19h940q39 0 71.5 19t52 50t19.5 69v972z" />
    <glyph glyph-name="four_uni20DE.liga" unicode="&#x34;&#x20de;" 
d="M834 1081h189v-458h91v-102h-91v-133h-123v133h-352v103q65 115 139 229t147 228zM669 623h231v361h-6q-58 -85 -116 -176t-109 -181v-4zM355 1464h968q72 0 130.5 -34.5t93 -92t34.5 -127.5v-976q0 -70 -34.5 -127.5t-93 -92t-130.5 -34.5h-968q-71 0 -129.5 34.5
t-93.5 92t-35 127.5v976q0 70 35 127.5t93.5 92t129.5 34.5zM1452 1208q0 38 -19.5 69t-52 50t-71.5 19h-940q-38 0 -71 -18.5t-52.5 -50t-19.5 -69.5v-972q0 -38 19.5 -69t52.5 -50t71 -19h940q39 0 71.5 19t52 50t19.5 69v972z" />
    <glyph glyph-name="five_uni20DE.liga" unicode="&#x35;&#x20de;" 
d="M591 562h121q9 -45 48.5 -66t86.5 -21q35 0 66.5 16.5t51.5 48t20 76.5q0 40 -19 69.5t-51 45.5t-69 16q-51 0 -82.5 -22.5t-43.5 -45.5h-114l32 402h434v-102h-329l-17 -195h6q7 11 26.5 25t49.5 24.5t71 10.5q63 0 116 -26.5t85 -77t32 -121.5q0 -73 -34 -128
t-94.5 -85.5t-141.5 -30.5q-73 0 -128.5 24.5t-87.5 67t-35 95.5zM355 1464h968q72 0 130.5 -34.5t93 -92t34.5 -127.5v-976q0 -70 -34.5 -127.5t-93 -92t-130.5 -34.5h-968q-71 0 -129.5 34.5t-93.5 92t-35 127.5v976q0 70 35 127.5t93.5 92t129.5 34.5zM1452 1208
q0 38 -19.5 69t-52 50t-71.5 19h-940q-38 0 -71 -18.5t-52.5 -50t-19.5 -69.5v-972q0 -38 19.5 -69t52.5 -50t71 -19h940q39 0 71.5 19t52 50t19.5 69v972z" />
    <glyph glyph-name="six_uni20DE.liga" unicode="&#x36;&#x20de;" 
d="M868 386q-82 0 -150 38.5t-108.5 117t-40.5 199.5q0 115 36 197.5t103.5 126.5t161.5 44q69 0 124.5 -24t92 -67t47.5 -100h-134q-14 38 -48 59.5t-83 21.5q-83 0 -126 -68.5t-43 -185.5h2q22 48 74.5 80t127.5 32q71 0 125 -29.5t84.5 -80.5t30.5 -116
q0 -71 -35.5 -126.5t-98 -87t-142.5 -31.5zM866 497q41 0 73.5 17t52 46t19.5 65q0 56 -40.5 92t-102.5 36q-63 0 -104.5 -35t-41.5 -90q0 -37 19 -66.5t51.5 -47t73.5 -17.5zM355 1464h968q72 0 130.5 -34.5t93 -92t34.5 -127.5v-976q0 -70 -34.5 -127.5t-93 -92
t-130.5 -34.5h-968q-71 0 -129.5 34.5t-93.5 92t-35 127.5v976q0 70 35 127.5t93.5 92t129.5 34.5zM1452 1208q0 38 -19.5 69t-52 50t-71.5 19h-940q-38 0 -71 -18.5t-52.5 -50t-19.5 -69.5v-972q0 -38 19.5 -69t52.5 -50t71 -19h940q39 0 71.5 19t52 50t19.5 69v972z" />
    <glyph glyph-name="seven_uni20DE.liga" unicode="&#x37;&#x20de;" 
d="M601 1081h491v-105l-296 -588h-137l301 584v6h-359v103zM355 1464h968q72 0 130.5 -34.5t93 -92t34.5 -127.5v-976q0 -70 -34.5 -127.5t-93 -92t-130.5 -34.5h-968q-71 0 -129.5 34.5t-93.5 92t-35 127.5v976q0 70 35 127.5t93.5 92t129.5 34.5zM1452 1208q0 38 -19.5 69
t-52 50t-71.5 19h-940q-38 0 -71 -18.5t-52.5 -50t-19.5 -69.5v-972q0 -38 19.5 -69t52.5 -50t71 -19h940q39 0 71.5 19t52 50t19.5 69v972z" />
    <glyph glyph-name="eight_uni20DE.liga" unicode="&#x38;&#x20de;" 
d="M839 467q63 0 104 33.5t41 85.5t-40.5 85.5t-104.5 33.5t-105 -34t-41 -85q0 -52 41 -85.5t105 -33.5zM839 793q53 0 87 29.5t34 75.5t-34 74.5t-87 28.5t-87 -28.5t-34 -74.5t34 -75.5t87 -29.5zM837 375q-82 0 -143 25.5t-95.5 71t-34.5 106.5q0 64 41.5 112t109.5 61
v5q-57 18 -89.5 59t-32.5 96q0 53 31.5 94.5t87 65t127.5 23.5t127.5 -23.5t87 -65t31.5 -94.5q0 -55 -33 -97t-89 -58v-5q68 -13 109.5 -60.5t41.5 -111.5q0 -61 -35 -107t-97.5 -71.5t-144.5 -25.5zM355 1464h968q72 0 130.5 -34.5t93 -92t34.5 -127.5v-976
q0 -70 -34.5 -127.5t-93 -92t-130.5 -34.5h-968q-71 0 -129.5 34.5t-93.5 92t-35 127.5v976q0 70 35 127.5t93.5 92t129.5 34.5zM1452 1208q0 38 -19.5 69t-52 50t-71.5 19h-940q-38 0 -71 -18.5t-52.5 -50t-19.5 -69.5v-972q0 -38 19.5 -69t52.5 -50t71 -19h940
q39 0 71.5 19t52 50t19.5 69v972z" />
    <glyph glyph-name="nine_uni20DE.liga" unicode="&#x39;&#x20de;" 
d="M844 386q-69 0 -126 24t-93.5 66.5t-46.5 98.5h134q13 -38 48 -58.5t85 -20.5q86 0 127.5 70t41.5 185h-2q-21 -50 -74 -81.5t-125 -31.5q-68 0 -123.5 28.5t-88 80t-32.5 118.5q0 71 36 126t98.5 86.5t142.5 31.5q57 0 110.5 -20t96 -62t67 -109.5t24.5 -163.5
q0 -115 -36 -197.5t-103 -126.5t-161 -44zM846 742q63 0 104.5 35.5t41.5 90.5q0 36 -19 65.5t-52 47t-74 17.5q-40 0 -73 -17t-52.5 -46t-19.5 -65q0 -56 41.5 -92t102.5 -36zM355 1464h968q72 0 130.5 -34.5t93 -92t34.5 -127.5v-976q0 -70 -34.5 -127.5t-93 -92
t-130.5 -34.5h-968q-71 0 -129.5 34.5t-93.5 92t-35 127.5v976q0 70 35 127.5t93.5 92t129.5 34.5zM1452 1208q0 38 -19.5 69t-52 50t-71.5 19h-940q-38 0 -71 -18.5t-52.5 -50t-19.5 -69.5v-972q0 -38 19.5 -69t52.5 -50t71 -19h940q39 0 71.5 19t52 50t19.5 69v972z" />
    <glyph glyph-name="plus_uni20DE.liga" unicode="&#x2b;&#x20de;" 
d="M893 682v-217h-108v217h-212v102h212v209h108v-209h212v-102h-212zM355 1464h968q72 0 130.5 -34.5t93 -92t34.5 -127.5v-976q0 -70 -34.5 -127.5t-93 -92t-130.5 -34.5h-968q-71 0 -129.5 34.5t-93.5 92t-35 127.5v976q0 70 35 127.5t93.5 92t129.5 34.5zM1452 1208
q0 38 -19.5 69t-52 50t-71.5 19h-940q-38 0 -71 -18.5t-52.5 -50t-19.5 -69.5v-972q0 -38 19.5 -69t52.5 -50t71 -19h940q39 0 71.5 19t52 50t19.5 69v972z" />
    <glyph glyph-name="minus_uni20DE.liga" unicode="&#x2212;&#x20de;" 
d="M1094 677h-510v104h510v-104zM355 1464h968q72 0 130.5 -34.5t93 -92t34.5 -127.5v-976q0 -70 -34.5 -127.5t-93 -92t-130.5 -34.5h-968q-71 0 -129.5 34.5t-93.5 92t-35 127.5v976q0 70 35 127.5t93.5 92t129.5 34.5zM1452 1208q0 38 -19.5 69t-52 50t-71.5 19h-940
q-38 0 -71 -18.5t-52.5 -50t-19.5 -69.5v-972q0 -38 19.5 -69t52.5 -50t71 -19h940q39 0 71.5 19t52 50t19.5 69v972z" />
    <glyph glyph-name="multiply_uni20DE.liga" unicode="&#xd7;&#x20de;" 
d="M839 802l163 156l77 -73l-163 -156l163 -156l-77 -73l-163 156l-163 -156l-77 73l163 156l-163 156l77 73zM355 1464h968q72 0 130.5 -34.5t93 -92t34.5 -127.5v-976q0 -70 -34.5 -127.5t-93 -92t-130.5 -34.5h-968q-71 0 -129.5 34.5t-93.5 92t-35 127.5v976
q0 70 35 127.5t93.5 92t129.5 34.5zM1452 1208q0 38 -19.5 69t-52 50t-71.5 19h-940q-38 0 -71 -18.5t-52.5 -50t-19.5 -69.5v-972q0 -38 19.5 -69t52.5 -50t71 -19h940q39 0 71.5 19t52 50t19.5 69v972z" />
    <glyph glyph-name="divide_uni20DE.liga" unicode="&#xf7;&#x20de;" 
d="M1094 683h-510v91h510v-91zM760 934q0 34 22.5 55t55.5 21q35 0 58.5 -21t23.5 -55q0 -32 -23.5 -52.5t-58.5 -20.5q-33 0 -55.5 20.5t-22.5 52.5zM760 527q0 34 22.5 55t56.5 21t57.5 -21t23.5 -55q0 -31 -23.5 -52t-57.5 -21t-56.5 21t-22.5 52zM355 1464h968
q72 0 130.5 -34.5t93 -92t34.5 -127.5v-976q0 -70 -34.5 -127.5t-93 -92t-130.5 -34.5h-968q-71 0 -129.5 34.5t-93.5 92t-35 127.5v976q0 70 35 127.5t93.5 92t129.5 34.5zM1452 1208q0 38 -19.5 69t-52 50t-71.5 19h-940q-38 0 -71 -18.5t-52.5 -50t-19.5 -69.5v-972
q0 -38 19.5 -69t52.5 -50t71 -19h940q39 0 71.5 19t52 50t19.5 69v972z" />
    <glyph glyph-name="equal_uni20DE.liga" unicode="&#x3d;&#x20de;" 
d="M1080 567h-482v95h482v-95zM1080 795h-482v96h482v-96zM355 1464h968q72 0 130.5 -34.5t93 -92t34.5 -127.5v-976q0 -70 -34.5 -127.5t-93 -92t-130.5 -34.5h-968q-71 0 -129.5 34.5t-93.5 92t-35 127.5v976q0 70 35 127.5t93.5 92t129.5 34.5zM1452 1208q0 38 -19.5 69
t-52 50t-71.5 19h-940q-38 0 -71 -18.5t-52.5 -50t-19.5 -69.5v-972q0 -38 19.5 -69t52.5 -50t71 -19h940q39 0 71.5 19t52 50t19.5 69v972z" />
    <glyph glyph-name="greater_uni20DE.liga" unicode="&#x3e;&#x20de;" 
d="M1105 764v-84l-482 -246v122l337 167v5l-337 173v124zM355 1464h968q72 0 130.5 -34.5t93 -92t34.5 -127.5v-976q0 -70 -34.5 -127.5t-93 -92t-130.5 -34.5h-968q-71 0 -129.5 34.5t-93.5 92t-35 127.5v976q0 70 35 127.5t93.5 92t129.5 34.5zM1452 1208q0 38 -19.5 69
t-52 50t-71.5 19h-940q-38 0 -71 -18.5t-52.5 -50t-19.5 -69.5v-972q0 -38 19.5 -69t52.5 -50t71 -19h940q39 0 71.5 19t52 50t19.5 69v972z" />
    <glyph glyph-name="less_uni20DE.liga" unicode="&#x3c;&#x20de;" 
d="M574 680v84l481 261v-124l-338 -173v-5l338 -167v-122zM355 1464h968q72 0 130.5 -34.5t93 -92t34.5 -127.5v-976q0 -70 -34.5 -127.5t-93 -92t-130.5 -34.5h-968q-71 0 -129.5 34.5t-93.5 92t-35 127.5v976q0 70 35 127.5t93.5 92t129.5 34.5zM1452 1208q0 38 -19.5 69
t-52 50t-71.5 19h-940q-38 0 -71 -18.5t-52.5 -50t-19.5 -69.5v-972q0 -38 19.5 -69t52.5 -50t71 -19h940q39 0 71.5 19t52 50t19.5 69v972z" />
    <glyph glyph-name="numbersign_uni20DE.liga" unicode="&#x23;&#x20de;" 
d="M1126 802h-112l-30 -139h107l-19 -90h-107l-40 -190h-98l41 190h-131l-40 -190h-98l40 190h-105l18 90h106l30 139h-101l18 90h103l38 184h97l-38 -184h130l39 184h97l-38 -184h111zM781 806l-33 -153h144l33 153h-144zM355 1464h968q72 0 130.5 -34.5t93 -92
t34.5 -127.5v-976q0 -70 -34.5 -127.5t-93 -92t-130.5 -34.5h-968q-71 0 -129.5 34.5t-93.5 92t-35 127.5v976q0 70 35 127.5t93.5 92t129.5 34.5zM1452 1208q0 38 -19.5 69t-52 50t-71.5 19h-940q-38 0 -71 -18.5t-52.5 -50t-19.5 -69.5v-972q0 -38 19.5 -69t52.5 -50
t71 -19h940q39 0 71.5 19t52 50t19.5 69v972z" />
    <glyph glyph-name="triagdn_uni20DE.liga" unicode="&#x25bc;&#x20de;" 
d="M1154 945l-314 -543l-314 543h628zM355 1464h968q72 0 130.5 -34.5t93 -92t34.5 -127.5v-976q0 -70 -34.5 -127.5t-93 -92t-130.5 -34.5h-968q-71 0 -129.5 34.5t-93.5 92t-35 127.5v976q0 70 35 127.5t93.5 92t129.5 34.5zM1452 1208q0 38 -19.5 69t-52 50t-71.5 19
h-940q-38 0 -71 -18.5t-52.5 -50t-19.5 -69.5v-972q0 -38 19.5 -69t52.5 -50t71 -19h940q39 0 71.5 19t52 50t19.5 69v972z" />
    <glyph glyph-name="triagup_uni20DE.liga" unicode="&#x25b2;&#x20de;" 
d="M1153 513h-627l313 543zM355 1464h968q72 0 130.5 -34.5t93 -92t34.5 -127.5v-976q0 -70 -34.5 -127.5t-93 -92t-130.5 -34.5h-968q-71 0 -129.5 34.5t-93.5 92t-35 127.5v976q0 70 35 127.5t93.5 92t129.5 34.5zM1452 1208q0 38 -19.5 69t-52 50t-71.5 19h-940
q-38 0 -71 -18.5t-52.5 -50t-19.5 -69.5v-972q0 -38 19.5 -69t52.5 -50t71 -19h940q39 0 71.5 19t52 50t19.5 69v972z" />
    <glyph glyph-name="uni25C0_uni20DE.liga" unicode="&#x25c0;&#x20de;" 
d="M1055 415l-543 314l543 313v-627zM355 1464h968q72 0 130.5 -34.5t93 -92t34.5 -127.5v-976q0 -70 -34.5 -127.5t-93 -92t-130.5 -34.5h-968q-71 0 -129.5 34.5t-93.5 92t-35 127.5v976q0 70 35 127.5t93.5 92t129.5 34.5zM1452 1208q0 38 -19.5 69t-52 50t-71.5 19h-940
q-38 0 -71 -18.5t-52.5 -50t-19.5 -69.5v-972q0 -38 19.5 -69t52.5 -50t71 -19h940q39 0 71.5 19t52 50t19.5 69v972z" />
    <glyph glyph-name="uni25B6_uni20DE.liga" unicode="&#x25b6;&#x20de;" 
d="M623 415v627l543 -313zM355 1464h968q72 0 130.5 -34.5t93 -92t34.5 -127.5v-976q0 -70 -34.5 -127.5t-93 -92t-130.5 -34.5h-968q-71 0 -129.5 34.5t-93.5 92t-35 127.5v976q0 70 35 127.5t93.5 92t129.5 34.5zM1452 1208q0 38 -19.5 69t-52 50t-71.5 19h-940
q-38 0 -71 -18.5t-52.5 -50t-19.5 -69.5v-972q0 -38 19.5 -69t52.5 -50t71 -19h940q39 0 71.5 19t52 50t19.5 69v972z" />
    <glyph glyph-name="question_uni20DE.liga" unicode="&#x3f;&#x20de;" 
d="M737 454q0 34 25 55.5t63 21.5q40 0 65 -21.5t25 -55.5q0 -32 -25 -53.5t-65 -21.5q-38 0 -63 21.5t-25 53.5zM607 892q-1 56 19 95t54 63t76 34.5t85 10.5q60 0 112.5 -20t84.5 -60t32 -101q0 -44 -15.5 -73.5t-39.5 -50.5t-50 -39q-31 -23 -50 -38.5t-27.5 -33
t-8.5 -46.5v-27h-116v33q-3 57 24.5 94.5t71.5 67.5q38 26 60 47.5t22 59.5q0 47 -32.5 68.5t-73.5 21.5q-54 0 -81.5 -31t-27.5 -75h-119zM355 1464h968q72 0 130.5 -34.5t93 -92t34.5 -127.5v-976q0 -70 -34.5 -127.5t-93 -92t-130.5 -34.5h-968q-71 0 -129.5 34.5
t-93.5 92t-35 127.5v976q0 70 35 127.5t93.5 92t129.5 34.5zM1452 1208q0 38 -19.5 69t-52 50t-71.5 19h-940q-38 0 -71 -18.5t-52.5 -50t-19.5 -69.5v-972q0 -38 19.5 -69t52.5 -50t71 -19h940q39 0 71.5 19t52 50t19.5 69v972z" />
    <glyph glyph-name="exclam_uni20DE.liga" unicode="&#x21;&#x20de;" 
d="M750 454q0 34 24.5 56t64.5 22t64.5 -22t24.5 -56q0 -32 -24.5 -53.5t-64.5 -21.5t-64.5 21.5t-24.5 53.5zM769 1081h141l-15 -454h-111zM355 1464h968q72 0 130.5 -34.5t93 -92t34.5 -127.5v-976q0 -70 -34.5 -127.5t-93 -92t-130.5 -34.5h-968q-71 0 -129.5 34.5
t-93.5 92t-35 127.5v976q0 70 35 127.5t93.5 92t129.5 34.5zM1452 1208q0 38 -19.5 69t-52 50t-71.5 19h-940q-38 0 -71 -18.5t-52.5 -50t-19.5 -69.5v-972q0 -38 19.5 -69t52.5 -50t71 -19h940q39 0 71.5 19t52 50t19.5 69v972z" />
    <glyph glyph-name="uni2717_uni20DE.liga" unicode="&#x2717;&#x20de;" 
d="M843 806l259 258l82 -81l-258 -259l258 -259l-82 -83l-259 258l-259 -258l-83 83l258 259l-259 260l82 82zM355 1464h968q72 0 130.5 -34.5t93 -92t34.5 -127.5v-976q0 -70 -34.5 -127.5t-93 -92t-130.5 -34.5h-968q-71 0 -129.5 34.5t-93.5 92t-35 127.5v976
q0 70 35 127.5t93.5 92t129.5 34.5zM1452 1208q0 38 -19.5 69t-52 50t-71.5 19h-940q-38 0 -71 -18.5t-52.5 -50t-19.5 -69.5v-972q0 -38 19.5 -69t52.5 -50t71 -19h940q39 0 71.5 19t52 50t19.5 69v972z" />
    <glyph glyph-name="uni2713_uni20DE.liga" unicode="&#x2713;&#x20de;" 
d="M1262 950l-546 -544l-288 285l88 87l199 -198l459 458zM355 1464h968q72 0 130.5 -34.5t93 -92t34.5 -127.5v-976q0 -70 -34.5 -127.5t-93 -92t-130.5 -34.5h-968q-71 0 -129.5 34.5t-93.5 92t-35 127.5v976q0 70 35 127.5t93.5 92t129.5 34.5zM1452 1208q0 38 -19.5 69
t-52 50t-71.5 19h-940q-38 0 -71 -18.5t-52.5 -50t-19.5 -69.5v-972q0 -38 19.5 -69t52.5 -50t71 -19h940q39 0 71.5 19t52 50t19.5 69v972z" />
    <glyph glyph-name="plus_uni20DD_H18533.liga" unicode="&#x2b;&#x20dd;&#x25cf;" 
d="M904 674h231v121h-231v228h-130v-228h-231v-121h231v-237h130v237zM839 -50q-127 0 -242.5 39t-212 110t-167.5 167.5t-110 212t-39 242.5t39 242.5t110 212t167.5 167.5t212 110t242.5 39t242.5 -39t212 -110t167.5 -167.5t110 -212t39 -242.5t-39 -242.5t-110 -212
t-167.5 -167.5t-212 -110t-242.5 -39z" />
    <glyph glyph-name="minus_uni20DD_H18533.liga" unicode="&#x2212;&#x20dd;&#x25cf;" 
d="M1123 668v124h-568v-124h568zM839 -50q-127 0 -242.5 39t-212 110t-167.5 167.5t-110 212t-39 242.5t39 242.5t110 212t167.5 167.5t212 110t242.5 39t242.5 -39t212 -110t167.5 -167.5t110 -212t39 -242.5t-39 -242.5t-110 -212t-167.5 -167.5t-212 -110t-242.5 -39z
" />
    <glyph glyph-name="multiply_uni20DD_H18533.liga" unicode="&#xd7;&#x20dd;&#x25cf;" 
d="M839 817l-178 170l-91 -87l178 -171l-178 -169l91 -87l178 169l178 -169l91 87l-178 169l178 171l-91 87zM839 -50q-127 0 -242.5 39t-212 110t-167.5 167.5t-110 212t-39 242.5t39 242.5t110 212t167.5 167.5t212 110t242.5 39t242.5 -39t212 -110t167.5 -167.5
t110 -212t39 -242.5t-39 -242.5t-110 -212t-167.5 -167.5t-212 -110t-242.5 -39z" />
    <glyph glyph-name="divide_uni20DD_H18533.liga" unicode="&#xf7;&#x20dd;&#x25cf;" 
d="M747 953q0 -37 26.5 -61t64.5 -24q39 0 66.5 24t27.5 61q0 39 -27 63.5t-67 24.5q-38 0 -64.5 -24.5t-26.5 -63.5zM1123 674v110h-568v-110h568zM747 510q0 -37 26.5 -61t65.5 -24t66 24t27 61q0 39 -27 63.5t-66 24.5t-65.5 -24.5t-26.5 -63.5zM839 -50
q-127 0 -242.5 39t-212 110t-167.5 167.5t-110 212t-39 242.5t39 242.5t110 212t167.5 167.5t212 110t242.5 39t242.5 -39t212 -110t167.5 -167.5t110 -212t39 -242.5t-39 -242.5t-110 -212t-167.5 -167.5t-212 -110t-242.5 -39z" />
    <glyph glyph-name="equal_uni20DD_H18533.liga" unicode="&#x3d;&#x20dd;&#x25cf;" 
d="M1106 796v116h-534v-116h534zM1106 548v115h-534v-115h534zM839 -50q-127 0 -242.5 39t-212 110t-167.5 167.5t-110 212t-39 242.5t39 242.5t110 212t167.5 167.5t212 110t242.5 39t242.5 -39t212 -110t167.5 -167.5t110 -212t39 -242.5t-39 -242.5t-110 -212
t-167.5 -167.5t-212 -110t-242.5 -39z" />
    <glyph glyph-name="greater_uni20DD_H18533.liga" unicode="&#x3e;&#x20dd;&#x25cf;" 
d="M1127 770l-535 290v-145l368 -190l1 -1l-369 -179v-145l535 274v96zM839 -50q-127 0 -242.5 39t-212 110t-167.5 167.5t-110 212t-39 242.5t39 242.5t110 212t167.5 167.5t212 110t242.5 39t242.5 -39t212 -110t167.5 -167.5t110 -212t39 -242.5t-39 -242.5t-110 -212
t-167.5 -167.5t-212 -110t-242.5 -39z" />
    <glyph glyph-name="less_uni20DD_H18533.liga" unicode="&#x3c;&#x20dd;&#x25cf;" 
d="M543 674l534 -274v145l-367 179v1l367 190v145l-534 -290v-96zM839 -50q-127 0 -242.5 39t-212 110t-167.5 167.5t-110 212t-39 242.5t39 242.5t110 212t167.5 167.5t212 110t242.5 39t242.5 -39t212 -110t167.5 -167.5t110 -212t39 -242.5t-39 -242.5t-110 -212
t-167.5 -167.5t-212 -110t-242.5 -39z" />
    <glyph glyph-name="numbersign_uni20DD_H18533.liga" unicode="&#x23;&#x20dd;&#x25cf;" 
d="M779 809h147l-34 -157h-146zM1156 805l22 108h-122l42 200h-117l-41 -200h-132l42 200h-117l-41 -200h-113l-22 -108h111l-30 -141h-116l-22 -110h114l-43 -206h117l44 206h132l-44 -206h117l43 206h117l23 110h-116l29 141h123zM839 -50q-127 0 -242.5 39t-212 110
t-167.5 167.5t-110 212t-39 242.5t39 242.5t110 212t167.5 167.5t212 110t242.5 39t242.5 -39t212 -110t167.5 -167.5t110 -212t39 -242.5t-39 -242.5t-110 -212t-167.5 -167.5t-212 -110t-242.5 -39z" />
    <glyph glyph-name="triagdn_uni20DD_H18533.liga" unicode="&#x25bc;&#x20dd;&#x25cf;" 
d="M1185 980h-691l345 -598zM839 -50q-127 0 -242.5 39t-212 110t-167.5 167.5t-110 212t-39 242.5t39 242.5t110 212t167.5 167.5t212 110t242.5 39t242.5 -39t212 -110t167.5 -167.5t110 -212t39 -242.5t-39 -242.5t-110 -212t-167.5 -167.5t-212 -110t-242.5 -39z" />
    <glyph glyph-name="triagup_uni20DD_H18533.liga" unicode="&#x25b2;&#x20dd;&#x25cf;" 
d="M1185 493l-346 598l-345 -598h691zM839 -50q-127 0 -242.5 39t-212 110t-167.5 167.5t-110 212t-39 242.5t39 242.5t110 212t167.5 167.5t212 110t242.5 39t242.5 -39t212 -110t167.5 -167.5t110 -212t39 -242.5t-39 -242.5t-110 -212t-167.5 -167.5t-212 -110
t-242.5 -39z" />
    <glyph glyph-name="uni25C0_uni20DD_H18533.liga" unicode="&#x25c0;&#x20dd;&#x25cf;" 
d="M1083 392v689l-599 -344zM839 -50q-127 0 -242.5 39t-212 110t-167.5 167.5t-110 212t-39 242.5t39 242.5t110 212t167.5 167.5t212 110t242.5 39t242.5 -39t212 -110t167.5 -167.5t110 -212t39 -242.5t-39 -242.5t-110 -212t-167.5 -167.5t-212 -110t-242.5 -39z" />
    <glyph glyph-name="uni25B6_uni20DD_H18533.liga" unicode="&#x25b6;&#x20dd;&#x25cf;" 
d="M595 392l599 345l-599 344v-689zM839 -50q-127 0 -242.5 39t-212 110t-167.5 167.5t-110 212t-39 242.5t39 242.5t110 212t167.5 167.5t212 110t242.5 39t242.5 -39t212 -110t167.5 -167.5t110 -212t39 -242.5t-39 -242.5t-110 -212t-167.5 -167.5t-212 -110t-242.5 -39z
" />
    <glyph glyph-name="question_uni20DD_H18533.liga" unicode="&#x3f;&#x20dd;&#x25cf;" 
d="M718 429q0 -37 29 -62t73 -25q47 0 75 25t28 62q0 41 -28 65.5t-75 24.5q-44 0 -73 -24.5t-29 -65.5zM747 590h137v34q0 30 9 48.5t28.5 35t53.5 40.5q28 20 55 44t44.5 57t17.5 82q0 67 -35.5 112.5t-93.5 68t-126 22.5q-48 0 -94 -12t-84 -39t-60.5 -70t-22.5 -106v-5
h140q0 47 29 81t86 34q42 0 76 -22t34 -71q0 -39 -24.5 -62.5t-62.5 -49.5q-49 -34 -80 -76t-27 -105v-41zM839 -50q-127 0 -242.5 39t-212 110t-167.5 167.5t-110 212t-39 242.5t39 242.5t110 212t167.5 167.5t212 110t242.5 39t242.5 -39t212 -110t167.5 -167.5t110 -212
t39 -242.5t-39 -242.5t-110 -212t-167.5 -167.5t-212 -110t-242.5 -39z" />
    <glyph glyph-name="exclam_uni20DD_H18533.liga" unicode="&#x21;&#x20dd;&#x25cf;" 
d="M756 1118l17 -505h132l17 505h-166zM737 430q0 -37 28.5 -62t73.5 -25t73.5 25t28.5 62q0 40 -28.5 64.5t-73.5 24.5t-73.5 -24.5t-28.5 -64.5zM839 -50q-127 0 -242.5 39t-212 110t-167.5 167.5t-110 212t-39 242.5t39 242.5t110 212t167.5 167.5t212 110t242.5 39
t242.5 -39t212 -110t167.5 -167.5t110 -212t39 -242.5t-39 -242.5t-110 -212t-167.5 -167.5t-212 -110t-242.5 -39z" />
    <glyph glyph-name="uni2717_uni20DD_H18533.liga" unicode="&#x2717;&#x20dd;&#x25cf;" 
d="M843 816l-286 287l-91 -90l285 -287l-284 -284l92 -92l284 284l285 -284l90 92l-284 284l284 284l-90 91zM839 -50q-127 0 -242.5 39t-212 110t-167.5 167.5t-110 212t-39 242.5t39 242.5t110 212t167.5 167.5t212 110t242.5 39t242.5 -39t212 -110t167.5 -167.5
t110 -212t39 -242.5t-39 -242.5t-110 -212t-167.5 -167.5t-212 -110t-242.5 -39z" />
    <glyph glyph-name="uni2713_uni20DD_H18533.liga" unicode="&#x2713;&#x20dd;&#x25cf;" 
d="M703 377l600 599l-97 96l-504 -503l-218 217l-97 -96zM839 -50q-127 0 -242.5 39t-212 110t-167.5 167.5t-110 212t-39 242.5t39 242.5t110 212t167.5 167.5t212 110t242.5 39t242.5 -39t212 -110t167.5 -167.5t110 -212t39 -242.5t-39 -242.5t-110 -212t-167.5 -167.5
t-212 -110t-242.5 -39z" />
    <glyph glyph-name="zero_uni20DE_filledbox.liga" unicode="&#x30;&#x20de;&#x25a0;" 
d="M835 461q-70 0 -109 70.5t-39 203.5t39 203.5t109 70.5t109 -70.5t39 -203.5t-39 -203.5t-109 -70.5zM835 338q92 0 159.5 48t105 137t37.5 212t-37.5 212t-105 137t-159.5 48t-159.5 -48t-105 -137t-37.5 -212t37.5 -212t105 -137t159.5 -48zM355 1464h968
q72 0 130.5 -34.5t93 -92t34.5 -127.5v-976q0 -70 -34.5 -127.5t-93 -92t-130.5 -34.5h-968q-71 0 -129.5 34.5t-93.5 92t-35 127.5v976q0 70 35 127.5t93.5 92t129.5 34.5z" />
    <glyph glyph-name="one_uni20DE_filledbox.liga" unicode="&#x31;&#x20de;&#x25a0;" 
d="M962 353v765h-148l-191 -132v-140l187 128h1v-621h151zM355 1464h968q72 0 130.5 -34.5t93 -92t34.5 -127.5v-976q0 -70 -34.5 -127.5t-93 -92t-130.5 -34.5h-968q-71 0 -129.5 34.5t-93.5 92t-35 127.5v976q0 70 35 127.5t93.5 92t129.5 34.5z" />
    <glyph glyph-name="two_uni20DE_filledbox.liga" unicode="&#x32;&#x20de;&#x25a0;" 
d="M711 886v11q0 46 31.5 80.5t90.5 34.5q50 0 84.5 -30t34.5 -77q0 -48 -28 -85.5t-60 -70.5l-293 -306v-91h546v122h-342v0l203 212q33 35 61.5 69.5t46 73.5t17.5 87q0 62 -33 110.5t-93.5 76.5t-141.5 28q-91 0 -151 -34t-89.5 -87.5t-29.5 -112.5v-11h146zM355 1464
h968q72 0 130.5 -34.5t93 -92t34.5 -127.5v-976q0 -70 -34.5 -127.5t-93 -92t-130.5 -34.5h-968q-71 0 -129.5 34.5t-93.5 92t-35 127.5v976q0 70 35 127.5t93.5 92t129.5 34.5z" />
    <glyph glyph-name="three_uni20DE_filledbox.liga" unicode="&#x33;&#x20de;&#x25a0;" 
d="M743 688h93q64 0 102 -32.5t39 -82.5q0 -51 -39.5 -84t-106.5 -33q-59 1 -99 29t-45 69h-140q2 -59 36 -108t96 -78.5t151 -29.5q83 0 151.5 27.5t109 79.5t39.5 124q-2 61 -29 100.5t-65.5 60t-74.5 24.5v0v0q29 6 63 28t58 60t23 91q-2 57 -35.5 102.5t-93.5 71.5
t-141 26q-86 -1 -146 -30t-92 -77.5t-34 -107.5h144q2 38 35 67.5t89 29.5q54 0 88.5 -28.5t35.5 -74.5q0 -46 -35 -76t-89 -30h-88v-118zM355 1464h968q72 0 130.5 -34.5t93 -92t34.5 -127.5v-976q0 -70 -34.5 -127.5t-93 -92t-130.5 -34.5h-968q-71 0 -129.5 34.5
t-93.5 92t-35 127.5v976q0 70 35 127.5t93.5 92t129.5 34.5z" />
    <glyph glyph-name="four_uni20DE_filledbox.liga" unicode="&#x34;&#x20de;&#x25a0;" 
d="M827 1118q-60 -94 -107 -167t-84 -131t-66.5 -108t-56.5 -97v-117h383v-145h145v145h100v120h-100v500h-214zM896 618h-241v1q55 95 117.5 191.5t123.5 188.5v0v0v-381zM355 1464h968q72 0 130.5 -34.5t93 -92t34.5 -127.5v-976q0 -70 -34.5 -127.5t-93 -92t-130.5 -34.5
h-968q-71 0 -129.5 34.5t-93.5 92t-35 127.5v976q0 70 35 127.5t93.5 92t129.5 34.5z" />
    <glyph glyph-name="five_uni20DE_filledbox.liga" unicode="&#x35;&#x20de;&#x25a0;" 
d="M558 552q3 -61 38.5 -109t97 -76t143.5 -28q88 0 155.5 34t105.5 95t38 143q0 79 -35.5 134.5t-94.5 85t-129 29.5q-64 0 -104 -22t-56 -41v0v0q4 49 8 100t9 101h359v120h-483l-35 -448h131q13 25 47 49.5t88 24.5q40 0 73 -17t53 -48t20 -73q0 -48 -21 -81t-54 -50
t-69 -17q-50 0 -92 23.5t-51 70.5h-142zM355 1464h968q72 0 130.5 -34.5t93 -92t34.5 -127.5v-976q0 -70 -34.5 -127.5t-93 -92t-130.5 -34.5h-968q-71 0 -129.5 34.5t-93.5 92t-35 127.5v976q0 70 35 127.5t93.5 92t129.5 34.5z" />
    <glyph glyph-name="six_uni20DE_filledbox.liga" unicode="&#x36;&#x20de;&#x25a0;" 
d="M874 348q89 0 158.5 35t109.5 96t40 140q0 72 -33.5 128.5t-93.5 88.5t-138 32q-82 0 -140.5 -34.5t-82.5 -87.5h-2q0 125 46 199.5t137 74.5q52 0 89 -22.5t52 -63.5h155q-12 63 -52.5 111.5t-103 75.5t-139.5 27q-105 0 -180 -49t-115 -140t-40 -218
q0 -131 44.5 -218.5t120 -131t168.5 -43.5zM872 475q-43 0 -78.5 19t-56.5 50.5t-21 71.5q0 39 20.5 69.5t56.5 47.5t81 17t79.5 -17.5t55 -48.5t19.5 -71q0 -39 -21 -70t-56.5 -49.5t-78.5 -18.5zM355 1464h968q72 0 130.5 -34.5t93 -92t34.5 -127.5v-976
q0 -70 -34.5 -127.5t-93 -92t-130.5 -34.5h-968q-71 0 -129.5 34.5t-93.5 92t-35 127.5v976q0 70 35 127.5t93.5 92t129.5 34.5z" />
    <glyph glyph-name="seven_uni20DE_filledbox.liga" unicode="&#x37;&#x20de;&#x25a0;" 
d="M570 1118v-123h392v-1l-332 -641h159l325 645v120h-544zM355 1464h968q72 0 130.5 -34.5t93 -92t34.5 -127.5v-976q0 -70 -34.5 -127.5t-93 -92t-130.5 -34.5h-968q-71 0 -129.5 34.5t-93.5 92t-35 127.5v976q0 70 35 127.5t93.5 92t129.5 34.5z" />
    <glyph glyph-name="eight_uni20DE_filledbox.liga" unicode="&#x38;&#x20de;&#x25a0;" 
d="M835 805q-56 0 -90.5 30t-34.5 78t34.5 78t90.5 30t90.5 -30t34.5 -78t-34.5 -78t-90.5 -30zM835 449q-67 0 -110.5 35.5t-43.5 88.5q0 54 43.5 89.5t110.5 35.5t110.5 -35.5t43.5 -89.5q0 -53 -43.5 -88.5t-110.5 -35.5zM835 338q90 0 158.5 28.5t107 79.5t38.5 119
q0 70 -44 121.5t-119 67.5v0v0q62 21 96.5 66.5t34.5 107.5q0 60 -34.5 106.5t-96 72.5t-141.5 26t-141.5 -26t-96 -72.5t-34.5 -106.5q0 -62 34.5 -107.5t96.5 -66.5v0v0q-75 -16 -119 -67.5t-44 -121.5q0 -68 38.5 -119t107 -79.5t158.5 -28.5zM355 1464h968
q72 0 130.5 -34.5t93 -92t34.5 -127.5v-976q0 -70 -34.5 -127.5t-93 -92t-130.5 -34.5h-968q-71 0 -129.5 34.5t-93.5 92t-35 127.5v976q0 70 35 127.5t93.5 92t129.5 34.5z" />
    <glyph glyph-name="nine_uni20DE_filledbox.liga" unicode="&#x39;&#x20de;&#x25a0;" 
d="M848 348q104 0 179 49t115 140t40 217q0 105 -27.5 180t-74.5 122t-107 69.5t-124 22.5q-89 0 -158.5 -35t-109.5 -96t-40 -141q0 -74 36 -130.5t97 -87.5t137 -31q80 0 137.5 34t80.5 89h3q0 -82 -19.5 -143.5t-60.5 -96.5t-104 -35q-53 0 -90.5 21.5t-51.5 62.5h-155
q11 -62 52 -109.5t104.5 -74.5t140.5 -27zM849 746q-44 0 -79 17.5t-55.5 48.5t-20.5 71q0 39 21 70t56.5 49t79.5 18t79.5 -18.5t56 -50t20.5 -71.5q0 -39 -21 -69.5t-56.5 -47.5t-80.5 -17zM355 1464h968q72 0 130.5 -34.5t93 -92t34.5 -127.5v-976q0 -70 -34.5 -127.5
t-93 -92t-130.5 -34.5h-968q-71 0 -129.5 34.5t-93.5 92t-35 127.5v976q0 70 35 127.5t93.5 92t129.5 34.5z" />
    <glyph glyph-name="plus_uni20DE_filledbox.liga" unicode="&#x2b;&#x20de;&#x25a0;" 
d="M904 674h231v121h-231v228h-130v-228h-231v-121h231v-237h130v237zM355 1464h968q72 0 130.5 -34.5t93 -92t34.5 -127.5v-976q0 -70 -34.5 -127.5t-93 -92t-130.5 -34.5h-968q-71 0 -129.5 34.5t-93.5 92t-35 127.5v976q0 70 35 127.5t93.5 92t129.5 34.5z" />
    <glyph glyph-name="minus_uni20DE_filledbox.liga" unicode="&#x2212;&#x20de;&#x25a0;" 
d="M1123 668v124h-568v-124h568zM355 1464h968q72 0 130.5 -34.5t93 -92t34.5 -127.5v-976q0 -70 -34.5 -127.5t-93 -92t-130.5 -34.5h-968q-71 0 -129.5 34.5t-93.5 92t-35 127.5v976q0 70 35 127.5t93.5 92t129.5 34.5z" />
    <glyph glyph-name="multiply_uni20DE_filledbox.liga" unicode="&#xd7;&#x20de;&#x25a0;" 
d="M839 817l-178 170l-91 -87l178 -171l-178 -169l91 -87l178 169l178 -169l91 87l-178 169l178 171l-91 87zM355 1464h968q72 0 130.5 -34.5t93 -92t34.5 -127.5v-976q0 -70 -34.5 -127.5t-93 -92t-130.5 -34.5h-968q-71 0 -129.5 34.5t-93.5 92t-35 127.5v976
q0 70 35 127.5t93.5 92t129.5 34.5z" />
    <glyph glyph-name="divide_uni20DE_filledbox.liga" unicode="&#xf7;&#x20de;&#x25a0;" 
d="M747 953q0 -37 26.5 -61t64.5 -24q39 0 66.5 24t27.5 61q0 39 -27 63.5t-67 24.5q-38 0 -64.5 -24.5t-26.5 -63.5zM1123 674v110h-568v-110h568zM747 510q0 -37 26.5 -61t65.5 -24t66 24t27 61q0 39 -27 63.5t-66 24.5t-65.5 -24.5t-26.5 -63.5zM355 1464h968
q72 0 130.5 -34.5t93 -92t34.5 -127.5v-976q0 -70 -34.5 -127.5t-93 -92t-130.5 -34.5h-968q-71 0 -129.5 34.5t-93.5 92t-35 127.5v976q0 70 35 127.5t93.5 92t129.5 34.5z" />
    <glyph glyph-name="equal_uni20DE_filledbox.liga" unicode="&#x3d;&#x20de;&#x25a0;" 
d="M1106 796v116h-534v-116h534zM1106 548v115h-534v-115h534zM355 1464h968q72 0 130.5 -34.5t93 -92t34.5 -127.5v-976q0 -70 -34.5 -127.5t-93 -92t-130.5 -34.5h-968q-71 0 -129.5 34.5t-93.5 92t-35 127.5v976q0 70 35 127.5t93.5 92t129.5 34.5z" />
    <glyph glyph-name="greater_uni20DE_filledbox.liga" unicode="&#x3e;&#x20de;&#x25a0;" 
d="M1127 770l-535 290v-145l368 -190l1 -1l-369 -179v-145l535 274v96zM355 1464h968q72 0 130.5 -34.5t93 -92t34.5 -127.5v-976q0 -70 -34.5 -127.5t-93 -92t-130.5 -34.5h-968q-71 0 -129.5 34.5t-93.5 92t-35 127.5v976q0 70 35 127.5t93.5 92t129.5 34.5z" />
    <glyph glyph-name="less_uni20DE_filledbox.liga" unicode="&#x3c;&#x20de;&#x25a0;" 
d="M543 674l534 -274v145q-90 45 -183 90t-184 89v1l367 190v145l-534 -290v-96zM355 1464h968q72 0 130.5 -34.5t93 -92t34.5 -127.5v-976q0 -70 -34.5 -127.5t-93 -92t-130.5 -34.5h-968q-71 0 -129.5 34.5t-93.5 92t-35 127.5v976q0 70 35 127.5t93.5 92t129.5 34.5z" />
    <glyph glyph-name="numbersign_uni20DE_filledbox.liga" unicode="&#x23;&#x20de;&#x25a0;" 
d="M779 809h147l-34 -157h-146zM1156 805l22 108h-122l42 200h-117l-41 -200h-132l42 200h-117l-41 -200h-113l-22 -108h111l-30 -141h-116l-22 -110h114l-43 -206h117l44 206h132l-44 -206h117l43 206h117l23 110h-116l29 141h123zM355 1464h968q72 0 130.5 -34.5t93 -92
t34.5 -127.5v-976q0 -70 -34.5 -127.5t-93 -92t-130.5 -34.5h-968q-71 0 -129.5 34.5t-93.5 92t-35 127.5v976q0 70 35 127.5t93.5 92t129.5 34.5z" />
    <glyph glyph-name="triagdn_uni20DE_filledbox.liga" unicode="&#x25bc;&#x20de;&#x25a0;" 
d="M1185 975h-691l345 -599zM355 1464h968q72 0 130.5 -34.5t93 -92t34.5 -127.5v-976q0 -70 -34.5 -127.5t-93 -92t-130.5 -34.5h-968q-71 0 -129.5 34.5t-93.5 92t-35 127.5v976q0 70 35 127.5t93.5 92t129.5 34.5z" />
    <glyph glyph-name="triagup_uni20DE_filledbox.liga" unicode="&#x25b2;&#x20de;&#x25a0;" 
d="M1185 493l-346 598l-345 -598h691zM355 1464h968q72 0 130.5 -34.5t93 -92t34.5 -127.5v-976q0 -70 -34.5 -127.5t-93 -92t-130.5 -34.5h-968q-71 0 -129.5 34.5t-93.5 92t-35 127.5v976q0 70 35 127.5t93.5 92t129.5 34.5z" />
    <glyph glyph-name="uni25C0_uni20DE_filledbox.liga" unicode="&#x25c0;&#x20de;&#x25a0;" 
d="M1083 392v689l-599 -344zM355 1464h968q72 0 130.5 -34.5t93 -92t34.5 -127.5v-976q0 -70 -34.5 -127.5t-93 -92t-130.5 -34.5h-968q-71 0 -129.5 34.5t-93.5 92t-35 127.5v976q0 70 35 127.5t93.5 92t129.5 34.5z" />
    <glyph glyph-name="uni25B6_uni20DE_filledbox.liga" unicode="&#x25b6;&#x20de;&#x25a0;" 
d="M595 392l599 345l-599 344v-689zM355 1464h968q72 0 130.5 -34.5t93 -92t34.5 -127.5v-976q0 -70 -34.5 -127.5t-93 -92t-130.5 -34.5h-968q-71 0 -129.5 34.5t-93.5 92t-35 127.5v976q0 70 35 127.5t93.5 92t129.5 34.5z" />
    <glyph glyph-name="question_uni20DE_filledbox.liga" unicode="&#x3f;&#x20de;&#x25a0;" 
d="M718 429q0 -37 29 -62t73 -25q47 0 75 25t28 62q0 41 -28 65.5t-75 24.5q-44 0 -73 -24.5t-29 -65.5zM837 1134q-48 0 -94 -12t-84 -39t-60.5 -70t-22.5 -106v-5h140q0 47 29 81t86 34q42 0 76 -22t34 -71q0 -39 -24.5 -62.5t-62.5 -49.5q-49 -34 -80 -76t-27 -105v-41
h137v34q0 30 9 48.5t28.5 35t53.5 40.5q28 20 55 44t44.5 57t17.5 82q0 67 -35.5 112.5t-93.5 68t-126 22.5zM355 1464h968q72 0 130.5 -34.5t93 -92t34.5 -127.5v-976q0 -70 -34.5 -127.5t-93 -92t-130.5 -34.5h-968q-71 0 -129.5 34.5t-93.5 92t-35 127.5v976
q0 70 35 127.5t93.5 92t129.5 34.5z" />
    <glyph glyph-name="exclam_uni20DE_filledbox.liga" unicode="&#x21;&#x20de;&#x25a0;" 
d="M756 1118l17 -505h132l17 505h-166zM737 430q0 -37 28.5 -62t73.5 -25t73.5 25t28.5 62q0 40 -28.5 64.5t-73.5 24.5t-73.5 -24.5t-28.5 -64.5zM355 1464h968q72 0 130.5 -34.5t93 -92t34.5 -127.5v-976q0 -70 -34.5 -127.5t-93 -92t-130.5 -34.5h-968q-71 0 -129.5 34.5
t-93.5 92t-35 127.5v976q0 70 35 127.5t93.5 92t129.5 34.5z" />
    <glyph glyph-name="uni2717_uni20DE_filledbox.liga" unicode="&#x2717;&#x20de;&#x25a0;" 
d="M466 1013l285 -287l-284 -284l92 -92l284 284l285 -284l90 92l-284 284l284 284l-90 91l-285 -285l-286 287zM355 1464h968q72 0 130.5 -34.5t93 -92t34.5 -127.5v-976q0 -70 -34.5 -127.5t-93 -92t-130.5 -34.5h-968q-71 0 -129.5 34.5t-93.5 92t-35 127.5v976
q0 70 35 127.5t93.5 92t129.5 34.5z" />
    <glyph glyph-name="uni2713_uni20DE_filledbox.liga" unicode="&#x2713;&#x20de;&#x25a0;" 
d="M703 377l600 599l-97 96l-504 -503l-218 217l-97 -96zM355 1464h968q72 0 130.5 -34.5t93 -92t34.5 -127.5v-976q0 -70 -34.5 -127.5t-93 -92t-130.5 -34.5h-968q-71 0 -129.5 34.5t-93.5 92t-35 127.5v976q0 70 35 127.5t93.5 92t129.5 34.5z" />
    <glyph glyph-name=".notdef" horiz-adv-x="2048" 
d="M99 -494v284h1848v-284h-1848zM99 -62v284h1848v-284h-1848zM99 370v284h1848v-284h-1848zM99 802v284h1848v-284h-1848zM99 1234v284h1848v-284h-1848zM99 1666v284h1848v-284h-1848z" />
    <glyph glyph-name="glyph1" horiz-adv-x="0" 
 />
    <glyph glyph-name="glyph2" horiz-adv-x="0" 
 />
    <glyph glyph-name="space" unicode=" " horiz-adv-x="420" 
 />
    <glyph glyph-name="exclam" unicode="!" horiz-adv-x="546" 
d="M182 1443h180l-12 -964h-156zM272 -10q-48 0 -81 33t-33 81q0 49 33 81.5t81 32.5q49 0 81.5 -32.5t32.5 -81.5q0 -48 -32.5 -81t-81.5 -33z" />
    <glyph glyph-name="quotedbl" unicode="&#x22;" horiz-adv-x="807" 
d="M294 934h-160v509h160v-509zM671 934h-160v509h160v-509z" />
    <glyph glyph-name="numbersign" unicode="#" horiz-adv-x="1238" 
d="M630 0l82 403h-335l-82 -403h-142l81 403h-234l28 144h237l73 364h-247l29 143h247l81 389h142l-78 -389h333l81 389h143l-80 -389h249l-28 -143h-251l-75 -364h261l-28 -144h-262l-82 -403h-143zM405 544h337l75 369h-337z" />
    <glyph glyph-name="dollar" unicode="$" horiz-adv-x="1238" 
d="M677 633v-449q93 7 149.5 37.5t82.5 77.5t26 105q0 55 -22 97.5t-76.5 74.5t-153.5 56zM557 832v425q-76 -10 -127.5 -41t-78 -75.5t-26.5 -92.5q0 -74 51.5 -129t180.5 -87zM677 803l31 -7q129 -31 218.5 -79t136 -121t46.5 -178q0 -90 -34 -160t-93.5 -118.5
t-138 -76.5t-166.5 -35v-173h-120v174q-89 8 -168 38t-139.5 80t-96 120t-38.5 157h174q9 -62 39 -113t86.5 -84t142.5 -42v477l-23 6q-187 45 -285 132.5t-98 235.5q0 108 52 189t144 130t210 59v174h120v-173q87 -8 161.5 -38.5t131.5 -80.5t89.5 -118t35.5 -151h-174
q-10 101 -76.5 159.5t-167.5 71.5v-455z" />
    <glyph glyph-name="percent" unicode="%" horiz-adv-x="1610" 
d="M339 727q-92 0 -158 44.5t-101 127t-35 195.5t35.5 195t101.5 126t157 44q92 0 157.5 -44t101 -125.5t35.5 -195.5q0 -113 -35 -195.5t-101 -127t-158 -44.5zM339 845q71 0 110.5 64.5t39.5 184.5q0 119 -39.5 183t-110.5 64q-70 0 -110 -64t-40 -183q0 -120 39.5 -184.5
t110.5 -64.5zM384 0h-164l1006 1443h162zM1269 -16q-92 0 -158 44.5t-101 127t-35 195.5t35.5 195t101.5 126t157 44q92 0 157.5 -44t101 -126t35.5 -195t-35 -195.5t-101 -127t-158 -44.5zM1269 102q71 0 110.5 64.5t39.5 184.5q0 119 -39.5 183t-110.5 64q-70 0 -110 -64
t-40 -183q0 -120 39.5 -184.5t110.5 -64.5z" />
    <glyph glyph-name="ampersand" unicode="&#x26;" horiz-adv-x="1370" 
d="M1160 0l-134 145q-91 -81 -212 -125t-249 -44q-107 0 -195.5 30t-153 84t-100 129t-35.5 165q0 127 70 225.5t213 174.5q22 11 35.5 18.5t19.5 9.5q-64 68 -103.5 124.5t-57.5 107t-18 103.5q0 69 27.5 127t76.5 101.5t115.5 67.5t144.5 24q106 0 188.5 -41.5
t129.5 -114.5t47 -166q0 -73 -31.5 -135.5t-99.5 -119.5t-178 -115l357 -385q35 66 52 158t17 226v43h166v-44q0 -165 -30 -288t-89 -216l253 -269h-226zM467 679q-112 -68 -160 -134t-48 -149q0 -80 40.5 -141t113 -95t168.5 -34q64 0 128 16.5t119 46.5t93 71l-406 445
q-10 -5 -25.5 -13t-22.5 -13zM564 876q87 44 139 84.5t75 84t23 94.5q0 55 -24.5 97t-69 66t-102.5 24q-57 0 -101 -24.5t-69 -67t-25 -97.5q0 -39 15 -78t49 -83t90 -100z" />
    <glyph glyph-name="quotesingle" unicode="'" horiz-adv-x="430" 
d="M294 934h-160v509h160v-509z" />
    <glyph glyph-name="parenleft" unicode="(" horiz-adv-x="660" 
d="M189 568q0 261 70 476.5t214 398.5h146q-43 -49 -81 -122.5t-69.5 -162.5t-54.5 -188t-35.5 -201.5t-12.5 -200.5t12.5 -200.5t35.5 -201.5t54.5 -188t69.5 -162.5t81 -122.5h-146q-144 183 -214 398.5t-70 476.5z" />
    <glyph glyph-name="parenright" unicode=")" horiz-adv-x="660" 
d="M469 568q0 -261 -70 -476.5t-214 -398.5h-146q43 49 81 122.5t69.5 162.5t54.5 188t35.5 201.5t12.5 200.5t-12.5 200.5t-35.5 201.5t-54.5 188t-69.5 162.5t-81 122.5h146q144 -183 214 -398.5t70 -476.5z" />
    <glyph glyph-name="asterisk" unicode="*" horiz-adv-x="820" 
d="M680 872l-213 133l5 -242h-127l6 242l-216 -133l-57 104l217 128l-216 129l57 101l215 -131l-5 240h126l-5 -241l214 132l59 -101l-219 -130l219 -128z" />
    <glyph glyph-name="plus" unicode="+" horiz-adv-x="1238" 
d="M699 488v-422h-162v422h-402v162h402v422h162v-422h402v-162h-402z" />
    <glyph glyph-name="comma" unicode="," horiz-adv-x="520" 
d="M231 -287h-145l97 509h185z" />
    <glyph glyph-name="uni2011" unicode="&#x2011;" horiz-adv-x="878" 
d="M766 504h-656v162h656v-162z" />
    <glyph glyph-name="uni2011" unicode="-" horiz-adv-x="878" 
d="M766 504h-656v162h656v-162z" />
    <glyph glyph-name="period" unicode="." horiz-adv-x="520" 
d="M259 -10q-48 0 -81 33t-33 81t33 81t81 33t81 -33t33 -81t-33 -81t-81 -33z" />
    <glyph glyph-name="slash" unicode="/" horiz-adv-x="660" 
d="M149 -307h-149l511 1750h149z" />
    <glyph glyph-name="zero" unicode="0" horiz-adv-x="1242" 
d="M621 -24q-126 0 -225 52t-167.5 150t-104 235.5t-35.5 308.5q0 170 36 307t104.5 235t167 150.5t224.5 52.5t224 -52t166.5 -150t104 -235t35.5 -307q0 -171 -35.5 -309t-103.5 -235.5t-166.5 -150t-224.5 -52.5zM621 133q112 0 190 72.5t118.5 204.5t40.5 312
q0 178 -41 309.5t-118.5 204.5t-189.5 73t-190 -73t-119.5 -205t-41.5 -308q0 -180 40.5 -312.5t119 -205t191.5 -72.5z" />
    <glyph glyph-name="one" unicode="1" horiz-adv-x="908" 
d="M484 0v1252h-4l-382 -266v181l384 276h176v-1443h-174z" />
    <glyph glyph-name="two" unicode="2" horiz-adv-x="1159" 
d="M107 1026q0 95 36.5 175.5t102.5 140t154.5 92.5t192.5 33q100 0 183 -31.5t143 -87t92.5 -128t32.5 -154.5q0 -60 -16 -115.5t-54 -117t-103.5 -138.5t-164.5 -179l-343 -352v-4h705v-160h-952v124l508 530q73 76 120 132t73 100t36.5 84t10.5 85q0 71 -33.5 129
t-94.5 92t-143 34q-89 0 -159.5 -37t-111.5 -101.5t-41 -145.5h-174z" />
    <glyph glyph-name="three" unicode="3" horiz-adv-x="1212" 
d="M410 669v152h173q86 0 152 32.5t103 89t37 128.5q0 107 -68 173.5t-207 66.5q-85 0 -152.5 -29t-108 -84t-46.5 -133h-173q10 123 73 213t167.5 139.5t239.5 49.5q108 0 193 -29t143.5 -80t89 -118.5t30.5 -144.5q0 -90 -39 -159.5t-107.5 -115.5t-159.5 -65v-4
q105 -9 184.5 -54t124 -121t44.5 -179q0 -93 -38 -170t-106.5 -133.5t-159.5 -87t-197 -30.5q-112 0 -204 29.5t-159 84t-105 128.5t-43 164h173q5 -76 49.5 -132.5t118.5 -87t170 -30.5q95 0 166.5 33.5t111 92t40.5 133.5q1 89 -39 151t-114 94.5t-176 32.5h-181z" />
    <glyph glyph-name="four" unicode="4" horiz-adv-x="1238" 
d="M802 0v300h-725v163q46 85 103 181t131.5 211.5t172.5 260t226 327.5h266v-985h204v-158h-204v-300h-174zM255 462v-4h547v835h-3q-102 -146 -184 -266.5t-147.5 -220.5t-117.5 -184.5t-95 -159.5z" />
    <glyph glyph-name="five" unicode="5" horiz-adv-x="1198" 
d="M612 -24q-103 0 -191 30.5t-154.5 86.5t-105 132.5t-44.5 168.5h177q8 -77 51.5 -135.5t112.5 -91.5t156 -33q98 0 173 42t117 116.5t42 171.5q0 96 -42.5 170t-116.5 116t-170 42q-103 0 -183.5 -42.5t-130.5 -129.5h-159l74 823h826v-160h-678l-49 -485h4
q51 73 137 111t191 38q104 0 191 -35.5t151 -99.5t99.5 -151.5t35.5 -191.5q0 -109 -37.5 -199t-106.5 -156t-163 -102t-207 -36z" />
    <glyph glyph-name="six" unicode="6" horiz-adv-x="1226" 
d="M638 -25q-80 0 -159 24t-149 76t-124 136t-85 204.5t-31 281.5q0 243 66.5 415.5t192 264t301.5 91.5q123 0 223 -45t167 -127t89 -192h-183q-31 98 -109 151.5t-189 53.5q-181 0 -280 -155t-104 -443h3q30 65 87 118t137.5 84.5t178.5 31.5q103 0 190.5 -35.5t152 -100
t100.5 -151.5t36 -190q0 -107 -38 -197t-106.5 -156.5t-162 -103t-204.5 -36.5zM636 135q69 0 129 25t105 70t70.5 104.5t25.5 127.5q0 94 -42 167.5t-115.5 115.5t-169.5 42t-171 -41.5t-118 -114t-43 -164.5q0 -69 25 -129.5t70 -106t105 -71t129 -25.5z" />
    <glyph glyph-name="seven" unicode="7" horiz-adv-x="1120" 
d="M199 0l653 1279v4h-777v160h955v-167l-642 -1276h-189z" />
    <glyph glyph-name="eight" unicode="8" horiz-adv-x="1227" 
d="M612 -24q-114 0 -210 30.5t-166 86t-108.5 131.5t-38.5 166t39 166.5t108.5 130t162.5 74.5v4q-80 25 -137.5 72t-89 111t-31.5 140q0 82 35 151t98.5 120t149.5 79.5t188 28.5t188 -28t149.5 -79.5t98 -120.5t34.5 -152q0 -113 -68.5 -198.5t-188.5 -123.5v-4
q94 -22 163.5 -75.5t108.5 -129.5t39 -166q0 -91 -38.5 -166.5t-108.5 -131t-166 -86t-211 -30.5zM612 133q99 0 176 35t120.5 95.5t43.5 139.5t-43.5 140.5t-120.5 96t-176 34.5t-176 -35t-120.5 -96t-43.5 -140t43.5 -139.5t120.5 -95.5t176 -35zM612 832q85 0 151 30.5
t103.5 84.5t37.5 124q0 71 -37 125.5t-103 85t-152 30.5t-152 -31t-103 -85t-37 -125q0 -70 37 -124t103 -84.5t152 -30.5z" />
    <glyph glyph-name="nine" unicode="9" horiz-adv-x="1226" 
d="M575 -24q-124 0 -226 44.5t-169.5 125.5t-88.5 189h183q30 -100 110.5 -151t192.5 -51q122 0 207 70.5t129 204.5t47 326h-3q-30 -72 -90 -125t-140.5 -82t-172.5 -29q-103 0 -190.5 35.5t-152 100t-100.5 151.5t-36 190q0 107 38 197t106.5 156.5t162 103t204.5 36.5
q77 0 155.5 -23t149 -74t125.5 -134.5t86.5 -205t31.5 -285.5q0 -243 -66 -415.5t-191.5 -263.5t-301.5 -91zM585 656q72 0 132.5 24t105.5 67t70 101.5t25 127.5t-25 129t-70 105t-105 70.5t-130 25.5q-69 0 -129.5 -25t-105.5 -69.5t-70.5 -103.5t-25.5 -127
q0 -94 42.5 -167.5t117 -115.5t168.5 -42z" />
    <glyph glyph-name="colon" unicode=":" horiz-adv-x="520" 
d="M259 -10q-48 0 -81 33t-33 81t33 81t81 33t81 -33t33 -81t-33 -81t-81 -33zM259 796q-48 0 -81 33t-33 81t33 81t81 33t81 -33t33 -81t-33 -81t-81 -33z" />
    <glyph glyph-name="semicolon" unicode=";" horiz-adv-x="520" 
d="M259 796q-48 0 -81 33t-33 81t33 81t81 33t81 -33t33 -81t-33 -81t-81 -33zM231 -287h-145l97 509h185z" />
    <glyph glyph-name="less" unicode="&#x3c;" horiz-adv-x="1238" 
d="M1101 901l-759 -322v-9l759 -333v-181l-966 436v152l966 438v-181z" />
    <glyph glyph-name="equal" unicode="=" horiz-adv-x="1238" 
d="M1081 276h-926v154h926v-154zM1081 709h-926v154h926v-154z" />
    <glyph glyph-name="greater" unicode="&#x3e;" horiz-adv-x="1238" 
d="M135 901v181l966 -438v-152l-966 -436v181l759 333v9z" />
    <glyph glyph-name="question" unicode="?" horiz-adv-x="1002" 
d="M55 1066q4 81 33 151.5t83.5 123.5t134.5 83t185 30q94 0 172 -27.5t134.5 -76.5t87 -115t30.5 -143q0 -118 -56.5 -202.5t-152.5 -142.5q-63 -37 -98.5 -71t-50 -73t-14.5 -92v-65h-175v92q-1 99 48 170.5t152 133.5q58 36 93.5 71t51.5 76t16 94q0 62 -30 110.5
t-85 76.5t-130 28q-113 0 -181.5 -62.5t-76.5 -169.5h-171zM456 -10q-48 0 -81 33t-33 81q0 49 33 81.5t81 32.5q49 0 81.5 -32.5t32.5 -81.5q0 -48 -32.5 -81t-81.5 -33z" />
    <glyph glyph-name="at" unicode="@" horiz-adv-x="1791" 
d="M888 875q-101 0 -157 -74t-56 -205q0 -130 56.5 -205t154.5 -75q69 0 119.5 34.5t78 97t27.5 148.5t-27.5 148.5t-77.5 96.5t-118 34zM923 1435q174 0 321 -52.5t254.5 -150t167 -233t59.5 -300.5q0 -160 -45 -280t-129.5 -186.5t-201.5 -66.5q-57 0 -106 21t-80.5 59
t-37.5 88h-8q-32 -76 -99 -117.5t-155 -41.5q-104 0 -182.5 53.5t-122 149t-43.5 222.5q0 122 44.5 215t123 145.5t180.5 52.5q54 0 102 -17.5t84.5 -49.5t55.5 -74h8v122h151v-587q0 -49 27.5 -80t85.5 -31q60 0 106.5 47.5t73.5 138t27 219.5q0 136 -49 247.5t-139 192.5
t-213.5 124.5t-272.5 43.5q-146 0 -268.5 -52.5t-213 -148t-140.5 -226t-50 -287.5q0 -170 53 -300.5t148.5 -220t223.5 -135.5t279 -46q67 0 131.5 6t118 16.5t85.5 25.5v-126q-66 -23 -153 -36t-184 -13q-183 0 -337 54.5t-267.5 161t-176 262t-62.5 357.5q0 187 60 340.5
t170.5 264t262 170t333.5 59.5z" />
    <glyph glyph-name="A" unicode="A" horiz-adv-x="1292" 
d="M1077 0l-145 413h-574l-145 -413h-189l532 1443h178l532 -1443h-189zM642 1224l-231 -658h468l-231 658h-6z" />
    <glyph glyph-name="B" unicode="B" horiz-adv-x="1238" 
d="M684 0h-545v1443h547q123 0 216.5 -45t145.5 -126t52 -189q0 -56 -19 -108.5t-53 -96t-79.5 -72.5t-97.5 -38v-8q98 -12 170.5 -60t112 -123.5t39.5 -171.5q0 -127 -58.5 -217.5t-168 -139t-262.5 -48.5zM319 1284v-463h270q160 0 244.5 62t84.5 179q0 107 -71 164.5
t-202 57.5h-326zM319 159h338q163 0 247 65t84 190q0 252 -348 252h-321v-507z" />
    <glyph glyph-name="C" unicode="C" horiz-adv-x="1405" 
d="M733 -24q-149 0 -269 52t-205 149.5t-130.5 235.5t-45.5 309q0 170 45.5 307t131 235t205.5 150.5t268 52.5q118 0 219.5 -34t180.5 -97.5t130.5 -151.5t68.5 -196h-182q-23 94 -82.5 164.5t-145.5 109.5t-189 39q-106 0 -191.5 -41t-146.5 -117t-94 -182.5t-33 -238.5
q0 -177 57 -307.5t161.5 -201.5t247.5 -71q159 0 268 73t148 205h182q-33 -142 -113.5 -241.5t-203 -151t-282.5 -51.5z" />
    <glyph glyph-name="D" unicode="D" horiz-adv-x="1390" 
d="M139 1443h485q214 0 366.5 -85.5t233.5 -247t81 -388.5t-81 -389t-233 -247.5t-367 -85.5h-485v1443zM319 1281v-1119h293q163 0 277 65t173 189.5t59 303.5q0 271 -131.5 416t-377.5 145h-293z" />
    <glyph glyph-name="E" unicode="E" horiz-adv-x="1131" 
d="M1033 162v-162h-894v1443h894v-162h-714v-463h677v-160h-677v-496h714z" />
    <glyph glyph-name="F" unicode="F" horiz-adv-x="1081" 
d="M319 0h-180v1443h876v-162h-696v-496h639v-160h-639v-625z" />
    <glyph glyph-name="G" unicode="G" horiz-adv-x="1447" 
d="M1356 597q0 -195 -73 -334t-209.5 -213t-329.5 -74q-151 0 -273 53t-208.5 151.5t-133 237.5t-46.5 311q0 169 46 305t133 233t209 148.5t273 51.5q117 0 218 -33t180.5 -95t132 -149t72.5 -195h-189q-45 146 -153.5 226t-260.5 80q-149 0 -255.5 -68.5t-163.5 -196.5
t-57 -306q0 -182 57.5 -313.5t164.5 -203t254 -71.5q96 0 175.5 29.5t136.5 84t88.5 129t31.5 165.5v26h-407v158h587v-137z" />
    <glyph glyph-name="H" unicode="H" horiz-adv-x="1432" 
d="M1291 0h-180v657h-792v-657h-180v1443h180v-624h792v624h180v-1443z" />
    <glyph glyph-name="I" unicode="I" horiz-adv-x="460" 
d="M319 0h-180v1443h180v-1443z" />
    <glyph glyph-name="J" unicode="J" horiz-adv-x="1014" 
d="M41 339h179q2 -61 31.5 -107.5t80.5 -73t116 -26.5q119 0 182 69.5t63 201.5v1040h180v-1041q0 -137 -50.5 -234.5t-145.5 -149.5t-228 -52q-90 0 -165 27.5t-129 77t-84 118t-30 150.5z" />
    <glyph glyph-name="uni212A" unicode="&#x212a;" horiz-adv-x="1260" 
d="M319 0h-180v1443h180v-704h10l637 704h227l-593 -639l646 -804h-230l-541 676l-156 -172v-504z" />
    <glyph glyph-name="uni212A" unicode="K" horiz-adv-x="1260" 
d="M319 0h-180v1443h180v-704h10l637 704h227l-593 -639l646 -804h-230l-541 676l-156 -172v-504z" />
    <glyph glyph-name="L" unicode="L" horiz-adv-x="1074" 
d="M1015 162v-162h-876v1443h180v-1281h696z" />
    <glyph glyph-name="M" unicode="M" horiz-adv-x="1702" 
d="M1561 0h-168v1112h-7l-460 -1112h-152l-460 1112h-7v-1112h-168v1443h209l498 -1214h8l498 1214h209v-1443z" />
    <glyph glyph-name="N" unicode="N" horiz-adv-x="1432" 
d="M317 0h-178v1443h175l790 -1133h9v1133h178v-1443h-175l-790 1129h-9v-1129z" />
    <glyph glyph-name="O" unicode="O" horiz-adv-x="1498" 
d="M748 1467q153 0 276 -52t210 -149.5t133 -235t46 -309.5t-46 -309.5t-133 -235t-210 -149t-276 -51.5t-276 51.5t-210 149t-133 235t-46 309.5t46 309.5t133 235t210 149.5t276 52zM748 1301q-147 0 -255 -71t-166.5 -201t-58.5 -308q0 -177 58.5 -307t166.5 -201
t255 -71t255 71t166.5 201t58.5 307q0 178 -58.5 308t-166.5 201t-255 71z" />
    <glyph glyph-name="P" unicode="P" horiz-adv-x="1183" 
d="M139 1443h515q102 0 186.5 -33.5t146 -95.5t95.5 -147t34 -187q0 -103 -34 -188t-96.5 -147t-147 -96t-186.5 -34h-333v-515h-180v1443zM319 1283v-608h288q154 0 239 80.5t85 224.5q0 143 -84.5 223t-239.5 80h-288z" />
    <glyph glyph-name="Q" unicode="Q" horiz-adv-x="1498" 
d="M748 -24q-153 0 -276 51.5t-210 149t-133 235t-46 309.5t46 309.5t133 235t210 149.5t276 52t276 -52t210 -149.5t133 -235t46 -309.5q0 -209 -68.5 -368t-193.5 -253l191 -263h-202l-134 184q-115 -45 -258 -45zM748 142q81 0 153 23l-180 248h202l123 -168
q87 73 134.5 195t47.5 281q0 178 -58.5 308t-166.5 201t-255 71t-255 -71t-166.5 -201t-58.5 -308q0 -177 58.5 -307t166.5 -201t255 -71z" />
    <glyph glyph-name="R" unicode="R" horiz-adv-x="1227" 
d="M319 1283v-553h345q139 0 214.5 72t75.5 205q0 130 -79.5 203t-218.5 73h-337zM319 571v-571h-180v1443h541q139 0 242.5 -53.5t160.5 -150t57 -226.5q0 -101 -35 -184t-99.5 -142t-155.5 -88l334 -599h-211l-309 571v0h-345z" />
    <glyph glyph-name="S" unicode="S" horiz-adv-x="1215" 
d="M69 387h180q10 -77 59 -133t129 -86t184 -30q98 0 174.5 31.5t120 87t43.5 126.5q0 91 -65 151.5t-215 93.5l-160 35q-217 47 -315.5 146t-98.5 253q0 89 37 163.5t105 128.5t161.5 83.5t205.5 29.5q108 0 199 -30.5t158 -86t105.5 -132t41.5 -168.5h-180
q-8 79 -50.5 136t-113.5 88t-165 31q-90 0 -162 -28t-114.5 -80.5t-42.5 -126.5q0 -86 63 -144.5t211 -90.5l160 -35q151 -33 243 -85.5t134.5 -127.5t42.5 -177q0 -134 -66 -231t-185.5 -150t-281.5 -53q-158 0 -276.5 51t-188 143t-77.5 217z" />
    <glyph glyph-name="T" unicode="T" horiz-adv-x="1190" 
d="M684 0h-180v1281h-455v162h1090v-162h-455v-1281z" />
    <glyph glyph-name="U" unicode="U" horiz-adv-x="1426" 
d="M319 1443v-925q0 -109 46 -194t134 -133.5t213 -48.5t213 48.5t134 133.5t46 194v925h180v-937q0 -116 -39 -212.5t-113 -168t-180.5 -110.5t-240.5 -39t-240.5 39t-180.5 110.5t-113 168t-39 212.5v937h180z" />
    <glyph glyph-name="V" unicode="V" horiz-adv-x="1292" 
d="M734 0h-178l-532 1443h189l429 -1224h6l429 1224h189z" />
    <glyph glyph-name="W" unicode="W" horiz-adv-x="1892" 
d="M940 1145l-333 -1145h-170l-393 1443h188l289 -1178h8l325 1178h182l325 -1178h8l289 1178h188l-393 -1443h-170l-333 1145h-10z" />
    <glyph glyph-name="X" unicode="X" horiz-adv-x="1300" 
d="M44 0l491 723v7l-485 713h217l385 -580h7l390 580h205l-498 -722v-6l487 -715h-216l-383 575h-7l-389 -575h-204z" />
    <glyph glyph-name="Y" unicode="Y" horiz-adv-x="1254" 
d="M716 0h-180v621l-512 822h205l394 -648h6l394 648h205l-512 -822v-621z" />
    <glyph glyph-name="Z" unicode="Z" horiz-adv-x="1263" 
d="M97 0v128l823 1146v7h-795v162h1022v-128l-819 -1146v-7h836v-162h-1067z" />
    <glyph glyph-name="bracketleft" unicode="[" horiz-adv-x="660" 
d="M205 1443h434v-136h-266v-1479h266v-135h-434v1750z" />
    <glyph glyph-name="backslash" unicode="\" horiz-adv-x="660" 
d="M511 -307l-511 1750h149l511 -1750h-149z" />
    <glyph glyph-name="bracketright" unicode="]" horiz-adv-x="660" 
d="M453 1443v-1750h-434v135h266v1479h-266v136h434z" />
    <glyph glyph-name="asciicircum" unicode="^" horiz-adv-x="820" 
d="M403 1237l-190 -420h-159l267 570h176l267 -570h-161l-190 420h-10z" />
    <glyph glyph-name="underscore" unicode="_" horiz-adv-x="828" 
d="M882 -235h-936v128h936v-128z" />
    <glyph glyph-name="grave" unicode="`" horiz-adv-x="1024" 
d="M561 1190l-234 300h191l178 -300h-135z" />
    <glyph glyph-name="a" unicode="a" horiz-adv-x="1028" 
d="M455 130q82 0 147.5 35t104 95t38.5 135v85l-278 -17q-105 -7 -162.5 -51t-57.5 -118t57 -119t151 -45zM416 -18q-103 0 -181 39t-121.5 109t-43.5 164q0 134 98.5 214t278.5 90l298 17v87q0 95 -60 149t-168 54q-100 0 -162 -44.5t-78 -120.5h-168q6 90 57 162
t141.5 114t213.5 42q122 0 211.5 -41.5t138 -118t48.5 -179.5v-719h-165v179h-4q-31 -59 -83 -103.5t-116.5 -69t-134.5 -24.5z" />
    <glyph glyph-name="b" unicode="b" horiz-adv-x="1135" 
d="M629 -18q-114 0 -201 52t-137 142h-4v-176h-166v1443h174v-577h4q49 89 136 140.5t197 51.5q98 0 179 -38t139 -109t89.5 -170t31.5 -221q0 -123 -31.5 -222t-90 -169.5t-139.5 -108.5t-181 -38zM595 905q-88 0 -156 -48t-106.5 -134.5t-38.5 -202.5t38.5 -202.5
t106.5 -134.5t156 -48q92 0 159 46.5t103 133t36 205.5q0 118 -36 204.5t-103 133.5t-159 47z" />
    <glyph glyph-name="c" unicode="c" horiz-adv-x="1026" 
d="M976 699h-170q-13 57 -46.5 103.5t-88 74.5t-131.5 28q-90 0 -158 -47t-106 -133.5t-38 -204.5q0 -121 38.5 -207t107 -132t158.5 -46q107 0 175 53t90 147h171q-13 -103 -72 -183t-153 -125t-212 -45q-144 0 -252 64.5t-168 185t-60 288.5q0 123 34 222t97.5 170
t151 108.5t195.5 37.5q98 0 175 -29.5t132.5 -80t88.5 -115t41 -134.5z" />
    <glyph glyph-name="d" unicode="d" horiz-adv-x="1134" 
d="M506 -18q-99 0 -181 38t-141 109t-91 170t-32 221t32 221t90.5 170t139.5 109t179 38q112 0 198.5 -51t132.5 -136h4v572h174v-1443h-166v176h-3q-50 -90 -136.5 -142t-199.5 -52zM539 905q-92 0 -159.5 -47.5t-104 -133.5t-36.5 -204t36.5 -204.5t104 -133.5t159.5 -47
q90 0 157 47.5t104.5 134.5t37.5 203t-37.5 202.5t-104.5 134.5t-157 48z" />
    <glyph glyph-name="e" unicode="e" horiz-adv-x="1049" 
d="M529 907q-82 0 -144.5 -38.5t-100 -105.5t-43.5 -154h565q-2 87 -37 154t-96.5 105.5t-143.5 38.5zM802 298h171q-11 -68 -48 -126t-94.5 -100.5t-131.5 -66t-159 -23.5q-149 0 -256.5 65.5t-165 185t-57.5 283.5q0 121 33 220.5t95 171.5t148.5 111t194.5 39
q141 0 242.5 -64t156.5 -181t55 -274v-66h-746v-10q0 -99 37 -173.5t105.5 -115.5t161.5 -41q99 0 167.5 45.5t90.5 119.5z" />
    <glyph glyph-name="f" unicode="f" horiz-adv-x="622" 
d="M168 0v897h-145v143h145v116q0 150 70.5 222.5t214.5 72.5q29 0 58 -2.5t48 -5.5v-141q-16 2 -36.5 4t-42.5 2q-139 0 -139 -153v-115h213v-143h-212v-897h-174z" />
    <glyph glyph-name="g" unicode="g" horiz-adv-x="1125" 
d="M535 145q90 0 158 47t106 132.5t38 199.5t-38 200t-106 133.5t-158 47.5t-156.5 -46.5t-103 -132.5t-36.5 -202t36.5 -201.5t103 -131.5t156.5 -46zM541 -392q-86 0 -161 22.5t-133.5 64t-96 97.5t-48.5 122h179q26 -71 98 -114.5t169 -43.5q90 0 154.5 32.5t99.5 91
t35 135.5v164h-4q-48 -85 -136 -136t-197 -51q-133 0 -231.5 65.5t-153 185t-54.5 281.5q0 163 54.5 283t154 185.5t234.5 65.5q110 0 198 -51t140 -142h3v175h166v-1019q0 -124 -57.5 -217t-163 -144.5t-249.5 -51.5z" />
    <glyph glyph-name="h" unicode="h" horiz-adv-x="1104" 
d="M121 0v1443h174v-569h4q44 87 128 135.5t202 48.5q114 0 196 -48t126 -135t44 -203v-672h-174v640q0 124 -62 194t-184 70q-86 0 -149 -37t-97 -104t-34 -157v-606h-174z" />
    <glyph glyph-name="i" unicode="i" horiz-adv-x="418" 
d="M121 0v1040h174v-1040h-174zM208 1225q-45 0 -77 32t-32 77q0 46 32 77.5t77 31.5q46 0 77.5 -31.5t31.5 -77.5q0 -45 -31.5 -77t-77.5 -32z" />
    <glyph glyph-name="j" unicode="j" horiz-adv-x="418" 
d="M296 1040v-1091q0 -158 -78 -232.5t-244 -74.5h-17t-16 1v145h13.5h13.5q85 0 119.5 36t34.5 123v1093h174zM208 1225q-45 0 -77 32t-32 77q0 46 32 77.5t77 31.5q46 0 77.5 -31.5t31.5 -77.5q0 -45 -31.5 -77t-77.5 -32z" />
    <glyph glyph-name="k" unicode="k" horiz-adv-x="994" 
d="M295 578l460 462h211l-451 -449l465 -591h-202l-386 484l-97 -92v-392h-174v1443h174v-865z" />
    <glyph glyph-name="l" unicode="l" horiz-adv-x="418" 
d="M121 0v1443h174v-1443h-174z" />
    <glyph glyph-name="m" unicode="m" horiz-adv-x="1645" 
d="M112 0v1040h164v-166h4q37 82 113.5 133t181.5 51q106 0 182 -52t110 -146h4q44 93 130 145.5t196 52.5q103 0 179 -42t118 -118.5t42 -179.5v-718h-174v678q0 106 -56.5 166t-159.5 60q-69 0 -122 -31.5t-83 -86t-30 -125.5v-661h-174v697q0 63 -26.5 109.5t-74 72
t-112.5 25.5q-69 0 -123 -33t-84.5 -90t-30.5 -129v-652h-174z" />
    <glyph glyph-name="n" unicode="n" horiz-adv-x="1079" 
d="M112 0v1040h164v-166h4q43 84 126 134t204 50q114 0 194.5 -46.5t123 -132.5t42.5 -204v-675h-174v644q0 126 -59.5 193t-179.5 67q-82 0 -143 -36.5t-94.5 -102t-33.5 -153.5v-612h-174z" />
    <glyph glyph-name="o" unicode="o" horiz-adv-x="1087" 
d="M543 -18q-108 0 -196.5 37.5t-152.5 107.5t-98.5 169.5t-34.5 223.5t34.5 223.5t98.5 170t152.5 107.5t196.5 37t196 -37t152 -107.5t98.5 -170t34.5 -223.5t-34.5 -223.5t-98.5 -169.5t-152 -107.5t-196 -37.5zM543 135q92 0 160.5 45t106 131.5t37.5 208.5t-37.5 208.5
t-106 131.5t-160.5 45t-160.5 -45t-106.5 -131.5t-38 -208.5t38 -208.5t106.5 -131.5t160.5 -45z" />
    <glyph glyph-name="p" unicode="p" horiz-adv-x="1125" 
d="M617 1058q99 0 181 -38t141 -109t91 -170t32 -221t-32 -221t-90.5 -170t-139.5 -109t-179 -38q-112 0 -198 51t-133 136h-4v-516h-174v1387h165v-176h4q48 88 135.5 141t200.5 53zM583 135q92 0 160 47t104.5 133.5t36.5 204.5t-36.5 204t-104.5 133.5t-160 47.5
q-89 0 -156 -48t-104.5 -134.5t-37.5 -202.5t37.5 -202.5t104.5 -134.5t156 -48z" />
    <glyph glyph-name="q" unicode="q" horiz-adv-x="1125" 
d="M504 1058q113 0 200 -52t137 -142h4v176h166v-1387h-174v521h-4q-49 -89 -136 -140.5t-197 -51.5q-99 0 -179.5 38t-138.5 109t-89.5 170t-31.5 221q0 164 55 284.5t155 187t233 66.5zM535 135q89 0 157 48t106.5 134.5t38.5 202.5t-38.5 202.5t-106.5 134.5t-157 48
q-91 0 -157.5 -46.5t-102.5 -133t-36 -205.5q0 -118 36 -204.5t102.5 -133.5t157.5 -47z" />
    <glyph glyph-name="r" unicode="r" horiz-adv-x="631" 
d="M112 0v1040h164v-170h4q25 86 93 137t159 51q23 0 41 -3t29 -4v-169q-11 4 -36 7t-57 3q-68 0 -118 -30.5t-77.5 -85t-27.5 -128.5v-648h-174z" />
    <glyph glyph-name="s" unicode="s" horiz-adv-x="953" 
d="M94 753q0 89 48.5 158t134.5 108t199 39q114 0 200 -41t134.5 -113t52.5 -164h-166q-10 82 -67.5 129t-153.5 47q-95 0 -153 -43t-58 -111q0 -54 41 -91t128 -58l165 -40q105 -25 167.5 -62.5t90.5 -91t28 -128.5q0 -68 -30 -124.5t-84.5 -98t-128 -64t-160.5 -22.5
q-122 0 -211.5 39t-142 110t-62.5 169h174q31 -176 242 -176q106 0 167 42t61 112q0 56 -35.5 90.5t-124.5 56.5l-165 40q-147 35 -219 105t-72 183z" />
    <glyph glyph-name="t" unicode="t" horiz-adv-x="617" 
d="M169 1291h174v-251h202v-143h-202v-618q0 -71 31 -104.5t98 -33.5q15 0 39 1.5t33 3.5v-146q-16 -4 -47.5 -6t-62.5 -2q-96 0 -154 28t-84.5 89t-26.5 161v627h-155v143h155v251z" />
    <glyph glyph-name="u" unicode="u" horiz-adv-x="1079" 
d="M966 1040v-1040h-165v169h-4q-46 -90 -128 -138.5t-202 -48.5q-114 0 -194.5 46.5t-123 132.5t-42.5 204v675h174v-644q0 -127 59.5 -193.5t180.5 -66.5q84 0 145 36.5t93.5 102t32.5 154.5v611h174z" />
    <glyph glyph-name="v" unicode="v" horiz-adv-x="989" 
d="M965 1040l-382 -1040h-178l-383 1040h183l287 -855h4l288 855h181z" />
    <glyph glyph-name="w" unicode="w" horiz-adv-x="1465" 
d="M1435 1040l-290 -1040h-177l-235 805h-4l-234 -805h-177l-291 1040h173l208 -846h4l235 846h168l236 -846h4l208 846h172z" />
    <glyph glyph-name="x" unicode="x" horiz-adv-x="961" 
d="M480 396h-4l-251 -396h-193l354 520l-348 520h194l250 -390h4l247 390h194l-351 -513l346 -527h-193z" />
    <glyph glyph-name="y" unicode="y" horiz-adv-x="996" 
d="M199 -389q-16 0 -38.5 1.5t-36.5 4.5v146q14 -3 32.5 -4t35.5 -1q73 0 117 38.5t74 129.5l24 73l-384 1041h186l288 -866h3l288 866h183l-409 -1113q-33 -91 -68 -152t-76.5 -97t-95 -51.5t-123.5 -15.5z" />
    <glyph glyph-name="z" unicode="z" horiz-adv-x="958" 
d="M90 0v124l576 770v3h-575v143h772v-127l-572 -767v-3h575v-143h-776z" />
    <glyph glyph-name="braceleft" unicode="{" horiz-adv-x="660" 
d="M182 556q110 -11 164.5 -68.5t54.5 -165.5v-263q0 -120 46 -172.5t152 -52.5h40v-141h-55q-177 0 -262 84.5t-85 259.5v223q0 80 -20.5 126.5t-68 66.5t-129.5 20v190q82 0 129.5 20t68 66.5t20.5 126.5v223q0 175 85 259.5t262 84.5h55v-141h-40q-106 0 -152 -52.5
t-46 -172.5v-263q0 -108 -54.5 -165.5t-164.5 -68.5v-24z" />
    <glyph glyph-name="bar" unicode="|" horiz-adv-x="660" 
d="M402 -307h-146v1750h146v-1750z" />
    <glyph glyph-name="braceright" unicode="}" horiz-adv-x="660" 
d="M476 556v24q-110 11 -164.5 68.5t-54.5 165.5v263q0 120 -46 172.5t-152 52.5h-40v141h55q177 0 262 -84.5t85 -259.5v-223q0 -80 20.5 -126.5t68 -66.5t129.5 -20v-190q-82 0 -129.5 -20t-68 -66.5t-20.5 -126.5v-223q0 -175 -85 -259.5t-262 -84.5h-55v141h40
q106 0 152 52.5t46 172.5v263q0 108 54.5 165.5t164.5 68.5z" />
    <glyph glyph-name="asciitilde" unicode="~" horiz-adv-x="1238" 
d="M834 380q-53 0 -95 14t-86 45.5t-102 83.5q-49 43 -81 60t-66 17q-61 0 -96 -45t-40 -134h-155q0 91 24.5 155.5t66.5 105t93.5 59.5t105.5 19q52 0 96 -15.5t88 -47t97 -80.5q35 -33 60.5 -49.5t46 -22t41.5 -5.5q125 0 136 179h155q0 -91 -24.5 -155.5t-66 -105
t-93 -59.5t-105.5 -19z" />
    <glyph glyph-name="uni00A0" unicode="&#xa0;" horiz-adv-x="420" 
 />
    <glyph glyph-name="exclamdown" unicode="&#xa1;" horiz-adv-x="546" 
d="M182 -342l12 964h156l12 -964h-180zM272 885q-48 0 -81 33t-33 81q0 49 33 81.5t81 32.5q49 0 81.5 -32.5t32.5 -81.5q0 -48 -32.5 -81t-81.5 -33z" />
    <glyph glyph-name="cent" unicode="&#xa2;" horiz-adv-x="1238" 
d="M583 333v778q-118 -23 -189 -123t-71 -266q0 -170 71 -268.5t189 -120.5zM942 537h171q-13 -99 -68 -177t-143 -126t-199 -58v-176h-120v178q-132 14 -230.5 83.5t-152.5 186t-54 274.5q0 154 54 271.5t152.5 188t230.5 84.5v177h120v-175q91 -8 163 -41t124 -83.5
t82.5 -113t38.5 -129.5h-170q-17 82 -76.5 140.5t-161.5 72.5v-784q95 11 157 64t82 143z" />
    <glyph glyph-name="sterling" unicode="&#xa3;" horiz-adv-x="1238" 
d="M373 164h786v-154h-1062v152q94 14 155.5 64t92 122t30.5 152q0 35 -7 74.5t-18 82.5h-253v136h220q-11 47 -18.5 95t-7.5 94q0 143 62 247t174 160t262 56q99 0 178.5 -15.5t119.5 -33.5v-158q-46 20 -120 34t-162 14q-101 0 -175 -36t-114.5 -101.5t-40.5 -152.5
q0 -60 8 -109t19 -94h483v-136h-449q7 -34 11.5 -70.5t4.5 -78.5q0 -128 -49 -217.5t-130 -122.5v-4z" />
    <glyph glyph-name="currency" unicode="&#xa4;" horiz-adv-x="1238" 
d="M356 656q0 -54 20.5 -102t57 -84.5t84.5 -57t102 -20.5t102 20.5t84 57t56.5 84.5t20.5 102t-20.5 102t-56.5 84.5t-84 57t-102 20.5t-102 -20.5t-84.5 -57t-57 -84.5t-20.5 -102zM1111 1043l-168 -169q32 -46 49.5 -101.5t17.5 -116.5t-18 -116.5t-50 -102.5l169 -169
l-106 -106l-169 169q-47 -31 -101.5 -48.5t-114.5 -17.5q-61 0 -116.5 17.5t-102.5 49.5l-169 -170l-106 106l170 170q-31 47 -49 102.5t-18 115.5t18 115t49 102l-170 170l106 106l169 -169q47 32 102.5 49.5t116.5 17.5q60 0 115.5 -17.5t101.5 -49.5l168 169z" />
    <glyph glyph-name="yen" unicode="&#xa5;" horiz-adv-x="1238" 
d="M1216 1422l-443 -723h282v-120h-341v-160h341v-120h-341v-299h-176v299h-341v120h341v160h-341v120h282l-443 723h203l384 -658h6l384 658h203z" />
    <glyph glyph-name="brokenbar" unicode="&#xa6;" horiz-adv-x="660" 
d="M402 743h-146v700h146v-700zM402 -307h-146v700h146v-700z" />
    <glyph glyph-name="section" unicode="&#xa7;" horiz-adv-x="1160" 
d="M514 400l83 -18q62 0 111 25t78 68.5t29 97.5q0 63 -44 106t-126 61l-83 18q-61 0 -110.5 -26t-79 -69t-29.5 -96q0 -61 44.5 -105t126.5 -62zM584 -257q-115 0 -205 38t-144 105.5t-60 155.5h176q7 -46 39.5 -80.5t84.5 -53.5t118 -19q68 0 119.5 20t80.5 55.5t29 82.5
q0 56 -47.5 94t-150.5 66l-141 38q-164 44 -240.5 113.5t-76.5 174.5q0 95 58.5 164t164.5 98v16q-219 85 -219 273q0 93 50.5 163.5t140.5 110t210 39.5q111 0 196.5 -35t137.5 -100t64 -154h-173q-11 65 -73 104t-156 39q-67 0 -117.5 -19.5t-78.5 -55t-28 -82.5
q0 -57 46 -95t149 -66l141 -38q162 -43 237.5 -111t75.5 -169q0 -69 -32.5 -127.5t-89.5 -99.5t-132 -56v-16q254 -57 254 -257q0 -93 -52 -164t-144.5 -111.5t-211.5 -40.5z" />
    <glyph glyph-name="dieresis" unicode="&#xa8;" horiz-adv-x="1024" 
d="M324 1225q-45 0 -77 32t-32 77q0 46 32 77.5t77 31.5q46 0 77.5 -31.5t31.5 -77.5q0 -45 -31.5 -77t-77.5 -32zM698 1225q-45 0 -77 32t-32 77q0 46 32 77.5t77 31.5q46 0 77.5 -31.5t31.5 -77.5q0 -45 -31.5 -77t-77.5 -32z" />
    <glyph glyph-name="copyright" unicode="&#xa9;" horiz-adv-x="1706" 
d="M852 -168q-133 0 -252.5 39t-218.5 110.5t-171 170t-111.5 218.5t-39.5 256t39.5 256.5t111.5 219t171 170t218.5 110t252.5 38.5q134 0 253.5 -38.5t218.5 -110t171 -170t111 -219t39 -256.5t-39 -256t-111 -218.5t-171 -170t-218.5 -110.5t-253.5 -39zM852 -28
q110 0 208.5 32t179.5 90.5t140 139.5t91.5 180.5t32.5 211.5q0 141 -49.5 260.5t-138.5 207.5t-207.5 137t-256.5 49q-109 0 -207.5 -31.5t-179.5 -90t-140.5 -140t-92 -180.5t-32.5 -212q0 -112 32.5 -211.5t92 -180.5t140.5 -139.5t179.5 -90.5t207.5 -32zM1230 768h-139
q-11 43 -40 78.5t-75 56.5t-107 21q-76 0 -133 -35.5t-88.5 -102t-31.5 -158.5q0 -94 31.5 -161t88.5 -103t133 -36q86 0 144.5 39t77.5 112h139q-12 -79 -58.5 -141.5t-122.5 -98t-179 -35.5q-120 0 -209 51.5t-138 146.5t-49 226q0 128 48.5 222.5t137.5 146t209 51.5
q104 0 180.5 -38t122.5 -101.5t58 -140.5z" />
    <glyph glyph-name="ordfeminine" unicode="&#xaa;" horiz-adv-x="656" 
d="M294 939q45 0 81 17t57.5 46.5t21.5 67.5v47l-154 -9q-58 -4 -89 -26t-31 -60t31 -60.5t83 -22.5zM255 833q-62 0 -110 23t-75.5 64.5t-27.5 96.5q0 81 62 128t177 54l173 9v45q0 49 -33.5 76t-91.5 27q-56 0 -90 -23t-43 -62h-128q3 57 36.5 100.5t92 68.5t137.5 25
q78 0 135.5 -25t89 -70t31.5 -106v-421h-131v98h-3q-28 -50 -83.5 -79t-117.5 -29z" />
    <glyph glyph-name="guillemotleft" unicode="&#xab;" horiz-adv-x="1263" 
d="M337 572v-14l351 -413h-204l-350 416v8l350 416h204zM776 572v-14l351 -413h-204l-350 416v8l350 416h204z" />
    <glyph glyph-name="logicalnot" unicode="&#xac;" horiz-adv-x="1238" 
d="M1076 651v-585h-162v423h-754v162h916z" />
    <glyph glyph-name="registered" unicode="&#xae;" horiz-adv-x="1160" 
d="M579 592q-100 0 -187 36t-153 100.5t-103 149.5t-37 184t37 184t102.5 149.5t153 100.5t187.5 36t187.5 -36t153 -100t102.5 -149.5t37 -184.5t-37 -184t-102.5 -149.5t-153 -100.5t-187.5 -36zM579 692q78 0 145 28.5t117.5 79t79 118t28.5 144.5q0 78 -28.5 145
t-79 117.5t-117.5 79t-145 28.5q-77 0 -144.5 -28.5t-118 -79t-79 -117.5t-28.5 -145q0 -77 28.5 -144.5t79 -118t118 -79t144.5 -28.5zM493 846h-95v450h221q46 0 81.5 -18t56 -49t20.5 -70q0 -54 -28 -89.5t-78 -43.5l129 -180h-119l-109 167h-79v-167zM493 1216v-130h107
q35 0 55 18t20 50q0 62 -72 62h-110z" />
    <glyph glyph-name="macron" unicode="&#xaf;" horiz-adv-x="1024" 
d="M798 1385v-121h-574v121h574z" />
    <glyph glyph-name="degree" unicode="&#xb0;" horiz-adv-x="820" 
d="M409 792q-66 0 -122 24t-98.5 66.5t-66 98.5t-23.5 121t23.5 121t66 98.5t98.5 66.5t122 24q65 0 121 -24t98.5 -66.5t66.5 -98.5t24 -121t-24 -121t-66.5 -98.5t-98.5 -66.5t-121 -24zM409 937q45 0 81.5 22t57.5 59.5t21 83.5q0 47 -21 84.5t-57.5 59t-81.5 21.5
q-43 0 -79.5 -21.5t-58.5 -59t-22 -84.5q0 -46 22 -83.5t58.5 -59.5t79.5 -22z" />
    <glyph glyph-name="plusminus" unicode="&#xb1;" horiz-adv-x="1238" 
d="M1127 66h-1017v149h1017v-149zM693 628v-295h-149v295h-434v149h434v295h149v-295h434v-149h-434z" />
    <glyph glyph-name="uni00B2" unicode="&#xb2;" horiz-adv-x="633" 
d="M54 1330q0 68 34.5 119.5t94.5 80.5t138 29q76 0 133.5 -27t89.5 -73t32 -104q0 -43 -16 -79t-53 -76t-100 -97l-159 -140v-3h339v-117h-525v101l260 234q47 42 72 70.5t34 50.5t9 46q0 43 -32 71t-84 28q-58 0 -96.5 -32t-38.5 -82h-132z" />
    <glyph glyph-name="uni00B3" unicode="&#xb3;" horiz-adv-x="663" 
d="M231 1151v104h83q59 0 95 27t36 70q0 44 -30.5 68.5t-88.5 24.5q-56 0 -92.5 -25.5t-40.5 -71.5h-131q4 64 38 111.5t92.5 73.5t133.5 26q77 0 134 -23t88.5 -65t31.5 -98q0 -67 -44 -109t-109 -55v-3q82 -8 131 -51.5t49 -115.5q0 -63 -35.5 -111t-99 -74.5
t-145.5 -26.5q-81 0 -143.5 27t-98.5 75t-39 112h135q4 -43 43 -69t103 -26q61 0 98.5 27.5t37.5 71.5q0 51 -39 78.5t-107 27.5h-86z" />
    <glyph glyph-name="acute" unicode="&#xb4;" horiz-adv-x="1024" 
d="M462 1190h-135l178 300h191z" />
    <glyph glyph-name="mu" unicode="&#x3bc;" horiz-adv-x="1177" 
d="M112 -347v1387h174v-639q0 -128 60.5 -195.5t176.5 -67.5q130 0 202 78.5t72 212.5v611h173v-773q0 -69 21.5 -97.5t68.5 -28.5q14 0 30 2t25 6v-145q-14 -4 -39 -8t-49 -4q-88 0 -142 34.5t-75 113.5q-2 8 -3.5 16.5t-3.5 17.5h-2q-46 -89 -119 -140.5t-164 -51.5
q-77 0 -139.5 35t-90.5 94h-2v-458h-174z" />
    <glyph glyph-name="mu" unicode="&#xb5;" horiz-adv-x="1177" 
d="M112 -347v1387h174v-639q0 -128 60.5 -195.5t176.5 -67.5q130 0 202 78.5t72 212.5v611h173v-773q0 -69 21.5 -97.5t68.5 -28.5q14 0 30 2t25 6v-145q-14 -4 -39 -8t-49 -4q-88 0 -142 34.5t-75 113.5q-2 8 -3.5 16.5t-3.5 17.5h-2q-46 -89 -119 -140.5t-164 -51.5
q-77 0 -139.5 35t-90.5 94h-2v-458h-174z" />
    <glyph glyph-name="paragraph" unicode="&#xb6;" horiz-adv-x="1160" 
d="M723 -220h-150v900h-18q-88 0 -163.5 28t-132.5 78.5t-88.5 119t-31.5 149.5q0 85 32 156t89 123t132.5 80.5t163.5 28.5h167v-1663zM869 -220v1663h150v-1663h-150z" />
    <glyph glyph-name="periodcentered" unicode="&#xb7;" horiz-adv-x="520" 
d="M259 406q-48 0 -81 33t-33 81t33 81t81 33t81 -33t33 -81t-33 -81t-81 -33z" />
    <glyph glyph-name="cedilla" unicode="&#xb8;" horiz-adv-x="1024" 
d="M401 -231v72l81 167h123v-8l-63 -127q97 -3 155 -45t58 -118q0 -57 -33 -96.5t-87.5 -60t-119.5 -21.5q-44 -1 -87 3.5t-63 10.5v106q13 -3 44.5 -7t68.5 -4q33 0 63.5 6t50 20.5t19.5 38.5q0 34 -34 48.5t-106 14.5h-70z" />
    <glyph glyph-name="uni00B9" unicode="&#xb9;" horiz-adv-x="509" 
d="M241 843v565h-3l-189 -121v130l192 126h140v-700h-140z" />
    <glyph glyph-name="ordmasculine" unicode="&#xba;" horiz-adv-x="685" 
d="M342 831q-92 0 -160.5 38t-106.5 109.5t-38 169.5t38 169.5t106.5 109.5t160.5 38q91 0 159.5 -38t106.5 -109.5t38 -169.5q0 -99 -38 -170t-106.5 -109t-159.5 -38zM342 942q75 0 120 53.5t45 152.5q0 98 -45 152.5t-120 54.5q-76 0 -121 -54.5t-45 -152.5
q0 -99 45 -152.5t121 -53.5z" />
    <glyph glyph-name="guillemotright" unicode="&#xbb;" horiz-adv-x="1263" 
d="M485 572l-351 413h204l350 -416v-8l-350 -416h-204l351 413v14zM924 572l-351 413h204l350 -416v-8l-350 -416h-204l351 413v14z" />
    <glyph glyph-name="onequarter" unicode="&#xbc;" horiz-adv-x="1425" 
d="M241 743v565h-3l-189 -121v130l192 126h140v-700h-140zM272 0h-164l1006 1443h162zM1162 0v128h-366v123q31 58 71.5 121.5t95.5 142.5t133 185h201v-454h98v-118h-98v-128h-135zM921 245v-3h243v353h-2q-57 -73 -100 -132.5t-77 -112t-64 -105.5z" />
    <glyph glyph-name="onehalf" unicode="&#xbd;" horiz-adv-x="1483" 
d="M241 743v565h-3l-189 -121v130l192 126h140v-700h-140zM272 0h-164l1006 1443h162zM904 487q0 67 34.5 119t94.5 81t138 29q76 0 133.5 -27t89.5 -73t32 -104q0 -43 -16 -79t-53 -76.5t-100 -96.5l-159 -140v-3h339v-117h-525v101l260 234q47 43 72 71t34 50t9 46
q0 43 -32 71t-84 28q-58 0 -96.5 -32t-38.5 -82h-132z" />
    <glyph glyph-name="threequarters" unicode="&#xbe;" horiz-adv-x="1579" 
d="M231 1051v104h83q59 0 95 27t36 70q0 44 -30.5 68.5t-88.5 24.5q-56 0 -92.5 -25.5t-40.5 -71.5h-131q4 64 38 111.5t92.5 73.5t133.5 26q77 0 134 -23t88.5 -65t31.5 -98q0 -67 -44 -109t-109 -55v-3q82 -8 131 -51.5t49 -115.5q0 -63 -35.5 -111t-99 -74.5
t-145.5 -26.5q-81 0 -143.5 27t-98.5 75t-39 112h135q4 -43 43 -69t103 -26q61 0 98.5 27.5t37.5 71.5q0 51 -39 78.5t-107 27.5h-86zM426 0h-164l1006 1443h162zM1316 0v128h-366v123q31 58 71.5 121.5t96 142.5t132.5 185h201v-454h98v-118h-98v-128h-135zM1075 245v-3
h243v353h-2q-57 -73 -100 -132.5t-77 -112t-64 -105.5z" />
    <glyph glyph-name="questiondown" unicode="&#xbf;" horiz-adv-x="1002" 
d="M945 32q-5 -109 -55 -197t-145.5 -140t-234.5 -52q-95 0 -173 27.5t-134.5 76.5t-87 115.5t-30.5 144.5q0 116 57 200.5t152 142.5q63 38 98.5 72t49.5 73t14 91v65h175v-92q2 -99 -47 -170.5t-152 -133.5q-57 -35 -92.5 -70t-52 -76t-16.5 -93q0 -63 30 -112t85.5 -77
t130.5 -28q112 0 180.5 62.5t76.5 170.5h171zM531 885q-48 0 -81 33t-33 81q0 49 33 81.5t81 32.5q49 0 81.5 -32.5t32.5 -81.5q0 -48 -32.5 -81t-81.5 -33z" />
    <glyph glyph-name="Agrave" unicode="&#xc0;" horiz-adv-x="1292" 
d="M1077 0l-145 413h-574l-145 -413h-189l532 1443h178l532 -1443h-189zM642 1224l-231 -658h468l-231 658h-6zM563 1559l-242 290h196l181 -290h-135z" />
    <glyph glyph-name="Aacute" unicode="&#xc1;" horiz-adv-x="1292" 
d="M1077 0l-145 413h-574l-145 -413h-189l532 1443h178l532 -1443h-189zM642 1224l-231 -658h468l-231 658h-6zM727 1559h-135l181 290h196z" />
    <glyph glyph-name="Acircumflex" unicode="&#xc2;" horiz-adv-x="1292" 
d="M1077 0l-145 413h-574l-145 -413h-189l532 1443h178l532 -1443h-189zM642 1224l-231 -658h468l-231 658h-6zM578 1849h134l269 -298h-163l-170 192h-6l-170 -192h-163z" />
    <glyph glyph-name="Atilde" unicode="&#xc3;" horiz-adv-x="1292" 
d="M1077 0l-145 413h-574l-145 -413h-189l532 1443h178l532 -1443h-189zM642 1224l-231 -658h468l-231 658h-6zM760 1584q-42 0 -72 14t-52.5 34t-40.5 40.5t-35.5 34.5t-38.5 14q-33 0 -53.5 -29.5t-20.5 -99.5h-117q0 117 53 183t146 66q42 0 72 -14t51 -34.5t38.5 -40.5
t34.5 -34t39 -14q36 0 57.5 30.5t21.5 98.5h117q0 -116 -53 -182.5t-147 -66.5z" />
    <glyph glyph-name="Adieresis" unicode="&#xc4;" horiz-adv-x="1292" 
d="M1077 0l-145 413h-574l-145 -413h-189l532 1443h178l532 -1443h-189zM642 1224l-231 -658h468l-231 658h-6zM458 1608q-45 0 -77 32t-32 77q0 46 32 77.5t77 31.5q46 0 77.5 -31.5t31.5 -77.5q0 -45 -31.5 -77t-77.5 -32zM832 1608q-45 0 -77 32t-32 77q0 46 32 77.5
t77 31.5q46 0 77.5 -31.5t31.5 -77.5q0 -45 -31.5 -77t-77.5 -32z" />
    <glyph glyph-name="uni212B" unicode="&#x212b;" horiz-adv-x="1292" 
d="M1077 0l-145 413h-574l-145 -413h-189l532 1443h178l532 -1443h-189zM642 1224l-231 -658h468l-231 658h-6zM645 1516q-52 0 -95.5 26t-69.5 69t-26 96t26 96t69.5 69t95.5 26t95.5 -26t69.5 -69t26 -96t-26 -96t-69.5 -69t-95.5 -26zM645 1604q43 0 73 30t30 73t-30 73
t-73 30t-73 -30t-30 -73t30 -73t73 -30z" />
    <glyph glyph-name="uni212B" unicode="&#xc5;" horiz-adv-x="1292" 
d="M1077 0l-145 413h-574l-145 -413h-189l532 1443h178l532 -1443h-189zM642 1224l-231 -658h468l-231 658h-6zM645 1516q-52 0 -95.5 26t-69.5 69t-26 96t26 96t69.5 69t95.5 26t95.5 -26t69.5 -69t26 -96t-26 -96t-69.5 -69t-95.5 -26zM645 1604q43 0 73 30t30 73t-30 73
t-73 30t-73 -30t-30 -73t30 -73t73 -30z" />
    <glyph glyph-name="AE" unicode="&#xc6;" horiz-adv-x="1973" 
d="M802 1292l-322 -680h482v680h-160zM962 0v459h-555l-217 -459h-185l687 1443h1144v-162h-694v-473h657v-160h-657v-486h694v-162h-874z" />
    <glyph glyph-name="Ccedilla" unicode="&#xc7;" horiz-adv-x="1405" 
d="M1332 988h-182q-23 94 -82.5 164.5t-145.5 109.5t-189 39q-106 0 -191.5 -41t-146.5 -117t-94 -182.5t-33 -238.5q0 -177 57 -307.5t161.5 -201.5t247.5 -71q159 0 268 73t148 205h182q-45 -194 -177.5 -307t-337.5 -133l-53 -107q97 -3 155 -45t58 -118q0 -57 -33 -96.5
t-87.5 -60t-119.5 -21.5q-44 -1 -87 3.5t-63 10.5v106q13 -3 44.5 -7t68.5 -4q33 0 63.5 6t50 20.5t19.5 38.5q0 34 -34 48.5t-106 14.5h-70v72l66 136q-140 8 -251.5 63t-191 152t-121.5 231t-42 299q0 170 45.5 307t131 235t205.5 150.5t268 52.5q118 0 219.5 -34
t180.5 -97.5t130.5 -151.5t68.5 -196z" />
    <glyph glyph-name="Egrave" unicode="&#xc8;" horiz-adv-x="1131" 
d="M1033 162v-162h-894v1443h894v-162h-714v-463h677v-160h-677v-496h714zM504 1559l-242 290h196l181 -290h-135z" />
    <glyph glyph-name="Eacute" unicode="&#xc9;" horiz-adv-x="1131" 
d="M1033 162v-162h-894v1443h894v-162h-714v-463h677v-160h-677v-496h714zM668 1559h-135l181 290h196z" />
    <glyph glyph-name="Ecircumflex" unicode="&#xca;" horiz-adv-x="1131" 
d="M1033 162v-162h-894v1443h894v-162h-714v-463h677v-160h-677v-496h714zM519 1849h134l269 -298h-163l-170 192h-6l-170 -192h-163z" />
    <glyph glyph-name="Edieresis" unicode="&#xcb;" horiz-adv-x="1131" 
d="M1033 162v-162h-894v1443h894v-162h-714v-463h677v-160h-677v-496h714zM399 1608q-45 0 -77 32t-32 77q0 46 32 77.5t77 31.5q46 0 77.5 -31.5t31.5 -77.5q0 -45 -31.5 -77t-77.5 -32zM773 1608q-45 0 -77 32t-32 77q0 46 32 77.5t77 31.5q46 0 77.5 -31.5t31.5 -77.5
q0 -45 -31.5 -77t-77.5 -32z" />
    <glyph glyph-name="Igrave" unicode="&#xcc;" horiz-adv-x="460" 
d="M320 0h-180v1443h180v-1443zM148 1559l-242 290h196l181 -290h-135z" />
    <glyph glyph-name="Iacute" unicode="&#xcd;" horiz-adv-x="460" 
d="M319 0h-180v1443h180v-1443zM311 1559h-135l181 290h196z" />
    <glyph glyph-name="Icircumflex" unicode="&#xce;" horiz-adv-x="460" 
d="M320 0h-180v1443h180v-1443zM163 1849h134l269 -298h-163l-170 192h-6l-170 -192h-163z" />
    <glyph glyph-name="Idieresis" unicode="&#xcf;" horiz-adv-x="460" 
d="M320 0h-180v1443h180v-1443zM43 1608q-45 0 -77 32t-32 77q0 46 32 77.5t77 31.5q46 0 77.5 -31.5t31.5 -77.5q0 -45 -31.5 -77t-77.5 -32zM417 1608q-45 0 -77 32t-32 77q0 46 32 77.5t77 31.5q46 0 77.5 -31.5t31.5 -77.5q0 -45 -31.5 -77t-77.5 -32z" />
    <glyph glyph-name="Eth" unicode="&#xd0;" horiz-adv-x="1390" 
d="M320 162h293q163 0 277 65t173 189.5t59 303.5q0 271 -131.5 416t-377.5 145h-293v-456h327v-162h-327v-501zM140 1443h485q214 0 366.5 -85.5t233.5 -247t81 -388.5t-81 -389t-233 -247.5t-367 -85.5h-485v663h-134v162h134v618z" />
    <glyph glyph-name="Ntilde" unicode="&#xd1;" horiz-adv-x="1432" 
d="M317 0h-178v1443h175l790 -1133h9v1133h178v-1443h-175l-790 1129h-9v-1129zM830 1584q-42 0 -72 14t-52.5 34t-40.5 40.5t-35.5 34.5t-38.5 14q-33 0 -53.5 -29.5t-20.5 -99.5h-117q0 117 53 183t146 66q42 0 72 -14t51 -34.5t38.5 -40.5t34.5 -34t39 -14
q36 0 57.5 30.5t21.5 98.5h117q0 -116 -53 -182.5t-147 -66.5z" />
    <glyph glyph-name="Ograve" unicode="&#xd2;" horiz-adv-x="1498" 
d="M748 1467q153 0 276 -52t210 -149.5t133 -235t46 -309.5t-46 -309.5t-133 -235t-210 -149t-276 -51.5t-276 51.5t-210 149t-133 235t-46 309.5t46 309.5t133 235t210 149.5t276 52zM748 1301q-147 0 -255 -71t-166.5 -201t-58.5 -308q0 -177 58.5 -307t166.5 -201
t255 -71t255 71t166.5 201t58.5 307q0 178 -58.5 308t-166.5 201t-255 71zM666 1559l-242 290h196l181 -290h-135z" />
    <glyph glyph-name="Oacute" unicode="&#xd3;" horiz-adv-x="1498" 
d="M748 1467q153 0 276 -52t210 -149.5t133 -235t46 -309.5t-46 -309.5t-133 -235t-210 -149t-276 -51.5t-276 51.5t-210 149t-133 235t-46 309.5t46 309.5t133 235t210 149.5t276 52zM748 1301q-147 0 -255 -71t-166.5 -201t-58.5 -308q0 -177 58.5 -307t166.5 -201
t255 -71t255 71t166.5 201t58.5 307q0 178 -58.5 308t-166.5 201t-255 71zM830 1559h-135l181 290h196z" />
    <glyph glyph-name="Ocircumflex" unicode="&#xd4;" horiz-adv-x="1498" 
d="M748 1467q153 0 276 -52t210 -149.5t133 -235t46 -309.5t-46 -309.5t-133 -235t-210 -149t-276 -51.5t-276 51.5t-210 149t-133 235t-46 309.5t46 309.5t133 235t210 149.5t276 52zM748 1301q-147 0 -255 -71t-166.5 -201t-58.5 -308q0 -177 58.5 -307t166.5 -201
t255 -71t255 71t166.5 201t58.5 307q0 178 -58.5 308t-166.5 201t-255 71zM681 1849h134l269 -298h-163l-170 192h-6l-170 -192h-163z" />
    <glyph glyph-name="Otilde" unicode="&#xd5;" horiz-adv-x="1498" 
d="M748 1467q153 0 276 -52t210 -149.5t133 -235t46 -309.5t-46 -309.5t-133 -235t-210 -149t-276 -51.5t-276 51.5t-210 149t-133 235t-46 309.5t46 309.5t133 235t210 149.5t276 52zM748 1301q-147 0 -255 -71t-166.5 -201t-58.5 -308q0 -177 58.5 -307t166.5 -201
t255 -71t255 71t166.5 201t58.5 307q0 178 -58.5 308t-166.5 201t-255 71zM863 1584q-42 0 -72 14t-52.5 34t-40.5 40.5t-35.5 34.5t-38.5 14q-33 0 -53.5 -29.5t-20.5 -99.5h-117q0 117 53 183t146 66q42 0 72 -14t51 -34.5t38.5 -40.5t34.5 -34t39 -14q36 0 57.5 30.5
t21.5 98.5h117q0 -116 -53 -182.5t-147 -66.5z" />
    <glyph glyph-name="Odieresis" unicode="&#xd6;" horiz-adv-x="1498" 
d="M748 1467q153 0 276 -52t210 -149.5t133 -235t46 -309.5t-46 -309.5t-133 -235t-210 -149t-276 -51.5t-276 51.5t-210 149t-133 235t-46 309.5t46 309.5t133 235t210 149.5t276 52zM748 1301q-147 0 -255 -71t-166.5 -201t-58.5 -308q0 -177 58.5 -307t166.5 -201
t255 -71t255 71t166.5 201t58.5 307q0 178 -58.5 308t-166.5 201t-255 71zM561 1608q-45 0 -77 32t-32 77q0 46 32 77.5t77 31.5q46 0 77.5 -31.5t31.5 -77.5q0 -45 -31.5 -77t-77.5 -32zM935 1608q-45 0 -77 32t-32 77q0 46 32 77.5t77 31.5q46 0 77.5 -31.5t31.5 -77.5
q0 -45 -31.5 -77t-77.5 -32z" />
    <glyph glyph-name="multiply" unicode="&#xd7;" horiz-adv-x="1238" 
d="M618 464l-342 -342l-104 104l341 343l-341 343l104 104l342 -342l342 342l104 -104l-341 -343l341 -343l-104 -104z" />
    <glyph glyph-name="Oslash" unicode="&#xd8;" horiz-adv-x="1498" 
d="M1141 1106l-679 -886q58 -44 130 -67t156 -23q151 0 260.5 72t169.5 205t60 314q0 116 -25 213.5t-72 171.5zM374 310l687 890q-61 55 -139.5 84t-173.5 29q-151 0 -260.5 -72t-169.5 -205t-60 -315q0 -127 30 -231t86 -180zM1381 1419l-132 -172q80 -96 122 -229.5
t42 -296.5q0 -172 -46 -309.5t-133 -235t-210 -149t-276 -51.5q-114 0 -211.5 29t-175.5 84l-104 -136l-100 76l110 142q-88 97 -136 236.5t-48 313.5q0 172 46 309.5t133 235t210 149.5t276 52q125 0 229.5 -34.5t185.5 -99.5l120 155z" />
    <glyph glyph-name="Ugrave" unicode="&#xd9;" horiz-adv-x="1426" 
d="M319 1443v-925q0 -109 46 -194t134 -133.5t213 -48.5t213 48.5t134 133.5t46 194v925h180v-937q0 -116 -39 -212.5t-113 -168t-180.5 -110.5t-240.5 -39t-240.5 39t-180.5 110.5t-113 168t-39 212.5v937h180zM630 1559l-242 290h196l181 -290h-135z" />
    <glyph glyph-name="Uacute" unicode="&#xda;" horiz-adv-x="1426" 
d="M319 1443v-925q0 -109 46 -194t134 -133.5t213 -48.5t213 48.5t134 133.5t46 194v925h180v-937q0 -116 -39 -212.5t-113 -168t-180.5 -110.5t-240.5 -39t-240.5 39t-180.5 110.5t-113 168t-39 212.5v937h180zM794 1559h-135l181 290h196z" />
    <glyph glyph-name="Ucircumflex" unicode="&#xdb;" horiz-adv-x="1426" 
d="M319 1443v-925q0 -109 46 -194t134 -133.5t213 -48.5t213 48.5t134 133.5t46 194v925h180v-937q0 -116 -39 -212.5t-113 -168t-180.5 -110.5t-240.5 -39t-240.5 39t-180.5 110.5t-113 168t-39 212.5v937h180zM645 1849h134l269 -298h-163l-170 192h-6l-170 -192h-163z
" />
    <glyph glyph-name="Udieresis" unicode="&#xdc;" horiz-adv-x="1426" 
d="M319 1443v-925q0 -109 46 -194t134 -133.5t213 -48.5t213 48.5t134 133.5t46 194v925h180v-937q0 -116 -39 -212.5t-113 -168t-180.5 -110.5t-240.5 -39t-240.5 39t-180.5 110.5t-113 168t-39 212.5v937h180zM525 1608q-45 0 -77 32t-32 77q0 46 32 77.5t77 31.5
q46 0 77.5 -31.5t31.5 -77.5q0 -45 -31.5 -77t-77.5 -32zM899 1608q-45 0 -77 32t-32 77q0 46 32 77.5t77 31.5q46 0 77.5 -31.5t31.5 -77.5q0 -45 -31.5 -77t-77.5 -32z" />
    <glyph glyph-name="Yacute" unicode="&#xdd;" horiz-adv-x="1254" 
d="M716 0h-180v621l-512 822h205l394 -648h6l394 648h205l-512 -822v-621zM708 1559h-135l181 290h196z" />
    <glyph glyph-name="Thorn" unicode="&#xde;" horiz-adv-x="1232" 
d="M159 1443h180v-266h373q83 0 158.5 -27.5t135 -81t94 -130.5t34.5 -176t-35 -176.5t-94.5 -131t-135.5 -81.5t-159 -28h-371v-345h-180v1443zM339 1017v-512h322q83 0 148 28.5t102.5 85.5t37.5 143t-37.5 142.5t-102.5 84.5t-148 28h-322z" />
    <glyph glyph-name="germandbls" unicode="&#xdf;" horiz-adv-x="1199" 
d="M344 0h-171v1070q0 116 50.5 201.5t142 132.5t215.5 47q89 0 163 -26.5t128 -75t83.5 -115t29.5 -145.5q0 -81 -27 -150t-76 -117.5t-117 -69.5v-4q102 -14 174.5 -62.5t110.5 -125t38 -174.5q0 -120 -54.5 -210t-153.5 -140t-232 -50q-82 0 -140 13v152q25 -7 59 -10.5
t68 -3.5q86 0 149.5 31t98 87.5t34.5 133.5q0 123 -85.5 194.5t-238.5 71.5h-60v168h50q110 0 171.5 68.5t61.5 187.5q0 65 -29.5 115t-81.5 78t-121 28q-113 0 -176.5 -66t-63.5 -183v-1051z" />
    <glyph glyph-name="agrave" unicode="&#xe0;" horiz-adv-x="1028" 
d="M455 130q82 0 147.5 35t104 95t38.5 135v85l-278 -17q-105 -7 -162.5 -51t-57.5 -118t57 -119t151 -45zM416 -18q-103 0 -181 39t-121.5 109t-43.5 164q0 134 98.5 214t278.5 90l298 17v87q0 95 -60 149t-168 54q-100 0 -162 -44.5t-78 -120.5h-168q6 90 57 162
t141.5 114t213.5 42q122 0 211.5 -41.5t138 -118t48.5 -179.5v-719h-165v179h-4q-31 -59 -83 -103.5t-116.5 -69t-134.5 -24.5zM440 1190l-234 300h191l178 -300h-135z" />
    <glyph glyph-name="aacute" unicode="&#xe1;" horiz-adv-x="1028" 
d="M455 130q82 0 147.5 35t104 95t38.5 135v85l-278 -17q-105 -7 -162.5 -51t-57.5 -118t57 -119t151 -45zM416 -18q-103 0 -181 39t-121.5 109t-43.5 164q0 134 98.5 214t278.5 90l298 17v87q0 95 -60 149t-168 54q-100 0 -162 -44.5t-78 -120.5h-168q6 90 57 162
t141.5 114t213.5 42q122 0 211.5 -41.5t138 -118t48.5 -179.5v-719h-165v179h-4q-31 -59 -83 -103.5t-116.5 -69t-134.5 -24.5zM578 1190h-135l178 300h191z" />
    <glyph glyph-name="acircumflex" unicode="&#xe2;" horiz-adv-x="1028" 
d="M455 130q82 0 147.5 35t104 95t38.5 135v85l-278 -17q-105 -7 -162.5 -51t-57.5 -118t57 -119t151 -45zM416 -18q-103 0 -181 39t-121.5 109t-43.5 164q0 134 98.5 214t278.5 90l298 17v87q0 95 -60 149t-168 54q-100 0 -162 -44.5t-78 -120.5h-168q6 90 57 162
t141.5 114t213.5 42q122 0 211.5 -41.5t138 -118t48.5 -179.5v-719h-165v179h-4q-31 -59 -83 -103.5t-116.5 -69t-134.5 -24.5zM576 1490l249 -300h-158l-155 189h-6l-155 -189h-158l249 300h134z" />
    <glyph glyph-name="atilde" unicode="&#xe3;" horiz-adv-x="1028" 
d="M455 130q82 0 147.5 35t104 95t38.5 135v85l-278 -17q-105 -7 -162.5 -51t-57.5 -118t57 -119t151 -45zM416 -18q-103 0 -181 39t-121.5 109t-43.5 164q0 134 98.5 214t278.5 90l298 17v87q0 95 -60 149t-168 54q-100 0 -162 -44.5t-78 -120.5h-168q6 90 57 162
t141.5 114t213.5 42q122 0 211.5 -41.5t138 -118t48.5 -179.5v-719h-165v179h-4q-31 -59 -83 -103.5t-116.5 -69t-134.5 -24.5zM624 1201q-42 0 -72 14t-52.5 34.5t-40.5 40.5t-35.5 34t-38.5 14q-33 0 -53.5 -29t-20.5 -100h-117q0 117 53 183t146 66q42 0 72 -14t51 -34
t38.5 -40.5t34.5 -34.5t39 -14q36 0 57.5 30.5t21.5 98.5h117q0 -116 -53 -182.5t-147 -66.5z" />
    <glyph glyph-name="adieresis" unicode="&#xe4;" horiz-adv-x="1028" 
d="M455 130q82 0 147.5 35t104 95t38.5 135v85l-278 -17q-105 -7 -162.5 -51t-57.5 -118t57 -119t151 -45zM416 -18q-103 0 -181 39t-121.5 109t-43.5 164q0 134 98.5 214t278.5 90l298 17v87q0 95 -60 149t-168 54q-100 0 -162 -44.5t-78 -120.5h-168q6 90 57 162
t141.5 114t213.5 42q122 0 211.5 -41.5t138 -118t48.5 -179.5v-719h-165v179h-4q-31 -59 -83 -103.5t-116.5 -69t-134.5 -24.5zM322 1225q-45 0 -77 32t-32 77q0 46 32 77.5t77 31.5q46 0 77.5 -31.5t31.5 -77.5q0 -45 -31.5 -77t-77.5 -32zM696 1225q-45 0 -77 32t-32 77
q0 46 32 77.5t77 31.5q46 0 77.5 -31.5t31.5 -77.5q0 -45 -31.5 -77t-77.5 -32z" />
    <glyph glyph-name="aring" unicode="&#xe5;" horiz-adv-x="1028" 
d="M455 130q82 0 147.5 35t104 95t38.5 135v85l-278 -17q-105 -7 -162.5 -51t-57.5 -118t57 -119t151 -45zM416 -18q-103 0 -181 39t-121.5 109t-43.5 164q0 134 98.5 214t278.5 90l298 17v87q0 95 -60 149t-168 54q-100 0 -162 -44.5t-78 -120.5h-168q6 90 57 162
t141.5 114t213.5 42q122 0 211.5 -41.5t138 -118t48.5 -179.5v-719h-165v179h-4q-31 -59 -83 -103.5t-116.5 -69t-134.5 -24.5zM509 1132q-52 0 -95.5 26t-69.5 69t-26 96t26 96t69.5 69t95.5 26t95.5 -26t69.5 -69t26 -96t-26 -96t-69.5 -69t-95.5 -26zM509 1220
q43 0 73 30t30 73t-30 73t-73 30t-73 -30t-30 -73t30 -73t73 -30z" />
    <glyph glyph-name="ae" unicode="&#xe6;" horiz-adv-x="1709" 
d="M1215 -18q-128 0 -225.5 59.5t-148.5 162.5h-10q-63 -105 -162 -163.5t-229 -58.5q-115 0 -199 38.5t-130 108t-46 164.5q0 135 101 213t288 87l290 15v73q0 64 -30.5 114.5t-85 80t-125.5 29.5q-99 0 -159.5 -46.5t-68.5 -119.5h-170q5 91 54.5 163t135.5 114t202 42
q130 0 225.5 -54t133.5 -151h8q53 100 143 152.5t210 52.5q132 0 228 -64.5t148 -181t52 -273.5v-65h-728v-11q0 -98 37 -172.5t104.5 -116t158.5 -41.5q94 0 158 45.5t87 119.5h171q-15 -91 -73 -162.5t-147 -112.5t-198 -41zM1203 907q-80 0 -142.5 -38t-100 -105.5
t-43.5 -154.5h549q-2 89 -35 156.5t-91.5 104.5t-136.5 37zM446 131q63 0 117 20.5t95 57t63.5 84.5t22.5 102v78l-272 -15q-111 -6 -170.5 -47.5t-59.5 -114.5q0 -48 25 -85.5t71 -58.5t108 -21z" />
    <glyph glyph-name="ccedilla" unicode="&#xe7;" horiz-adv-x="1026" 
d="M807 335h171q-12 -90 -58.5 -162.5t-121.5 -120.5t-171 -63l-57 -116q97 -3 155 -45t58 -118q0 -57 -33 -96.5t-87.5 -60t-119.5 -21.5q-44 -1 -87 3.5t-63 10.5v106q13 -3 44.5 -7t68.5 -4q33 0 63.5 6t50 20.5t19.5 38.5q0 34 -34 48.5t-106 14.5h-70v72l69 143
q-132 10 -230.5 76.5t-152.5 183.5t-54 276q0 123 34 222t97.5 170t151 108.5t195.5 37.5q98 0 175 -29.5t132.5 -80t88.5 -115t41 -134.5h-170q-13 57 -46.5 103.5t-88 74.5t-131.5 28q-90 0 -158 -47t-106 -133.5t-38 -204.5q0 -121 38.5 -207t107 -132t158.5 -46
q107 0 175 53t90 147z" />
    <glyph glyph-name="egrave" unicode="&#xe8;" horiz-adv-x="1049" 
d="M529 907q-82 0 -144.5 -38.5t-100 -105.5t-43.5 -154h565q-2 87 -37 154t-96.5 105.5t-143.5 38.5zM802 298h171q-11 -68 -48 -126t-94.5 -100.5t-131.5 -66t-159 -23.5q-149 0 -256.5 65.5t-165 185t-57.5 283.5q0 121 33 220.5t95 171.5t148.5 111t194.5 39
q141 0 242.5 -64t156.5 -181t55 -274v-66h-746v-10q0 -99 37 -173.5t105.5 -115.5t161.5 -41q99 0 167.5 45.5t90.5 119.5zM463 1190l-234 300h191l178 -300h-135z" />
    <glyph glyph-name="eacute" unicode="&#xe9;" horiz-adv-x="1049" 
d="M529 907q-82 0 -144.5 -38.5t-100 -105.5t-43.5 -154h565q-2 87 -37 154t-96.5 105.5t-143.5 38.5zM802 298h171q-11 -68 -48 -126t-94.5 -100.5t-131.5 -66t-159 -23.5q-149 0 -256.5 65.5t-165 185t-57.5 283.5q0 121 33 220.5t95 171.5t148.5 111t194.5 39
q141 0 242.5 -64t156.5 -181t55 -274v-66h-746v-10q0 -99 37 -173.5t105.5 -115.5t161.5 -41q99 0 167.5 45.5t90.5 119.5zM601 1190h-135l178 300h191z" />
    <glyph glyph-name="ecircumflex" unicode="&#xea;" horiz-adv-x="1049" 
d="M529 907q-82 0 -144.5 -38.5t-100 -105.5t-43.5 -154h565q-2 87 -37 154t-96.5 105.5t-143.5 38.5zM802 298h171q-11 -68 -48 -126t-94.5 -100.5t-131.5 -66t-159 -23.5q-149 0 -256.5 65.5t-165 185t-57.5 283.5q0 121 33 220.5t95 171.5t148.5 111t194.5 39
q141 0 242.5 -64t156.5 -181t55 -274v-66h-746v-10q0 -99 37 -173.5t105.5 -115.5t161.5 -41q99 0 167.5 45.5t90.5 119.5zM599 1490l249 -300h-158l-155 189h-6l-155 -189h-158l249 300h134z" />
    <glyph glyph-name="edieresis" unicode="&#xeb;" horiz-adv-x="1049" 
d="M529 907q-82 0 -144.5 -38.5t-100 -105.5t-43.5 -154h565q-2 87 -37 154t-96.5 105.5t-143.5 38.5zM802 298h171q-11 -68 -48 -126t-94.5 -100.5t-131.5 -66t-159 -23.5q-149 0 -256.5 65.5t-165 185t-57.5 283.5q0 121 33 220.5t95 171.5t148.5 111t194.5 39
q141 0 242.5 -64t156.5 -181t55 -274v-66h-746v-10q0 -99 37 -173.5t105.5 -115.5t161.5 -41q99 0 167.5 45.5t90.5 119.5zM345 1225q-45 0 -77 32t-32 77q0 46 32 77.5t77 31.5q46 0 77.5 -31.5t31.5 -77.5q0 -45 -31.5 -77t-77.5 -32zM719 1225q-45 0 -77 32t-32 77
q0 46 32 77.5t77 31.5q46 0 77.5 -31.5t31.5 -77.5q0 -45 -31.5 -77t-77.5 -32z" />
    <glyph glyph-name="igrave" unicode="&#xec;" horiz-adv-x="418" 
d="M122 0v1040h174v-1040h-174zM140 1190l-234 300h191l178 -300h-135z" />
    <glyph glyph-name="iacute" unicode="&#xed;" horiz-adv-x="418" 
d="M121 0v1040h174v-1040h-174zM277 1190h-135l178 300h191z" />
    <glyph glyph-name="icircumflex" unicode="&#xee;" horiz-adv-x="418" 
d="M122 0v1040h174v-1040h-174zM276 1490l249 -300h-158l-155 189h-6l-155 -189h-158l249 300h134z" />
    <glyph glyph-name="idieresis" unicode="&#xef;" horiz-adv-x="418" 
d="M122 0v1040h174v-1040h-174zM22 1225q-45 0 -77 32t-32 77q0 46 32 77.5t77 31.5q46 0 77.5 -31.5t31.5 -77.5q0 -45 -31.5 -77t-77.5 -32zM396 1225q-45 0 -77 32t-32 77q0 46 32 77.5t77 31.5q46 0 77.5 -31.5t31.5 -77.5q0 -45 -31.5 -77t-77.5 -32z" />
    <glyph glyph-name="eth" unicode="&#xf0;" horiz-adv-x="1117" 
d="M562 136q72 0 128 28t93.5 77.5t57 114t19.5 138.5q0 118 -37 201t-104.5 127t-157.5 44q-86 0 -154.5 -40.5t-108.5 -120t-40 -196.5t36 -200.5t104 -128t164 -44.5zM846 1394l-170 -97q125 -93 202.5 -206.5t112.5 -243t35 -271.5q0 -126 -29 -234.5t-87 -189.5
t-145 -126t-202 -45q-152 0 -260.5 64.5t-165.5 182.5t-57 281q0 121 35.5 215t98 159.5t144.5 99.5t175 34q101 0 175.5 -48.5t112.5 -121.5h15q-24 87 -101.5 186t-196.5 187l-290 -165v136l179 102q-43 25 -89.5 47t-95.5 41v126q93 -29 173 -63t149 -73l280 159z" />
    <glyph glyph-name="ntilde" unicode="&#xf1;" horiz-adv-x="1079" 
d="M112 0v1040h164v-166h4q43 84 126 134t204 50q114 0 194.5 -46.5t123 -132.5t42.5 -204v-675h-174v644q0 126 -59.5 193t-179.5 67q-82 0 -143 -36.5t-94.5 -102t-33.5 -153.5v-612h-174zM656 1201q-42 0 -72 14t-52.5 34.5t-40.5 40.5t-35.5 34t-38.5 14
q-33 0 -53.5 -29t-20.5 -100h-117q0 117 53 183t146 66q42 0 72 -14t51 -34t38.5 -40.5t34.5 -34.5t39 -14q36 0 57.5 30.5t21.5 98.5h117q0 -116 -53 -182.5t-147 -66.5z" />
    <glyph glyph-name="ograve" unicode="&#xf2;" horiz-adv-x="1087" 
d="M543 -18q-108 0 -196.5 37.5t-152.5 107.5t-98.5 169.5t-34.5 223.5t34.5 223.5t98.5 170t152.5 107.5t196.5 37t196 -37t152 -107.5t98.5 -170t34.5 -223.5t-34.5 -223.5t-98.5 -169.5t-152 -107.5t-196 -37.5zM543 135q92 0 160.5 45t106 131.5t37.5 208.5t-37.5 208.5
t-106 131.5t-160.5 45t-160.5 -45t-106.5 -131.5t-38 -208.5t38 -208.5t106.5 -131.5t160.5 -45zM474 1190l-234 300h191l178 -300h-135z" />
    <glyph glyph-name="oacute" unicode="&#xf3;" horiz-adv-x="1087" 
d="M543 -18q-108 0 -196.5 37.5t-152.5 107.5t-98.5 169.5t-34.5 223.5t34.5 223.5t98.5 170t152.5 107.5t196.5 37t196 -37t152 -107.5t98.5 -170t34.5 -223.5t-34.5 -223.5t-98.5 -169.5t-152 -107.5t-196 -37.5zM543 135q92 0 160.5 45t106 131.5t37.5 208.5t-37.5 208.5
t-106 131.5t-160.5 45t-160.5 -45t-106.5 -131.5t-38 -208.5t38 -208.5t106.5 -131.5t160.5 -45zM612 1190h-135l178 300h191z" />
    <glyph glyph-name="ocircumflex" unicode="&#xf4;" horiz-adv-x="1087" 
d="M543 -18q-108 0 -196.5 37.5t-152.5 107.5t-98.5 169.5t-34.5 223.5t34.5 223.5t98.5 170t152.5 107.5t196.5 37t196 -37t152 -107.5t98.5 -170t34.5 -223.5t-34.5 -223.5t-98.5 -169.5t-152 -107.5t-196 -37.5zM543 135q92 0 160.5 45t106 131.5t37.5 208.5t-37.5 208.5
t-106 131.5t-160.5 45t-160.5 -45t-106.5 -131.5t-38 -208.5t38 -208.5t106.5 -131.5t160.5 -45zM610 1490l249 -300h-158l-155 189h-6l-155 -189h-158l249 300h134z" />
    <glyph glyph-name="otilde" unicode="&#xf5;" horiz-adv-x="1087" 
d="M543 -18q-108 0 -196.5 37.5t-152.5 107.5t-98.5 169.5t-34.5 223.5t34.5 223.5t98.5 170t152.5 107.5t196.5 37t196 -37t152 -107.5t98.5 -170t34.5 -223.5t-34.5 -223.5t-98.5 -169.5t-152 -107.5t-196 -37.5zM543 135q92 0 160.5 45t106 131.5t37.5 208.5t-37.5 208.5
t-106 131.5t-160.5 45t-160.5 -45t-106.5 -131.5t-38 -208.5t38 -208.5t106.5 -131.5t160.5 -45zM658 1201q-42 0 -72 14t-52.5 34.5t-40.5 40.5t-35.5 34t-38.5 14q-33 0 -53.5 -29t-20.5 -100h-117q0 117 53 183t146 66q42 0 72 -14t51 -34t38.5 -40.5t34.5 -34.5t39 -14
q36 0 57.5 30.5t21.5 98.5h117q0 -116 -53 -182.5t-147 -66.5z" />
    <glyph glyph-name="odieresis" unicode="&#xf6;" horiz-adv-x="1087" 
d="M543 -18q-108 0 -196.5 37.5t-152.5 107.5t-98.5 169.5t-34.5 223.5t34.5 223.5t98.5 170t152.5 107.5t196.5 37t196 -37t152 -107.5t98.5 -170t34.5 -223.5t-34.5 -223.5t-98.5 -169.5t-152 -107.5t-196 -37.5zM543 135q92 0 160.5 45t106 131.5t37.5 208.5t-37.5 208.5
t-106 131.5t-160.5 45t-160.5 -45t-106.5 -131.5t-38 -208.5t38 -208.5t106.5 -131.5t160.5 -45zM356 1225q-45 0 -77 32t-32 77q0 46 32 77.5t77 31.5q46 0 77.5 -31.5t31.5 -77.5q0 -45 -31.5 -77t-77.5 -32zM730 1225q-45 0 -77 32t-32 77q0 46 32 77.5t77 31.5
q46 0 77.5 -31.5t31.5 -77.5q0 -45 -31.5 -77t-77.5 -32z" />
    <glyph glyph-name="divide" unicode="&#xf7;" horiz-adv-x="1238" 
d="M619 846q-49 0 -80.5 31t-31.5 81q0 49 31.5 81t80.5 32q48 0 80.5 -32t32.5 -81q0 -50 -32.5 -81t-80.5 -31zM619 66q-49 0 -80.5 32t-31.5 81t31.5 81t80.5 32q48 0 80.5 -32t32.5 -81t-32.5 -81t-80.5 -32zM1101 493h-966v152h966v-152z" />
    <glyph glyph-name="oslash" unicode="&#xf8;" horiz-adv-x="1087" 
d="M791 779l-410 -607q69 -45 162 -45q94 0 163.5 46.5t108 134.5t38.5 212q0 80 -16 145t-46 114zM297 259l413 605q-72 49 -167 49q-94 0 -164 -46.5t-108.5 -134.5t-38.5 -212q0 -81 16.5 -146.5t48.5 -114.5zM953 1019l-67 -100q65 -70 101.5 -170.5t36.5 -228.5
q0 -124 -34.5 -223.5t-98.5 -169.5t-152 -107.5t-196 -37.5q-70 0 -132.5 16t-115.5 47l-55 -82l-100 66l61 90q-67 70 -103.5 171.5t-36.5 229.5q0 124 34.5 223.5t98.5 170t152.5 107.5t196.5 37q144 0 254 -67l60 89z" />
    <glyph glyph-name="ugrave" unicode="&#xf9;" horiz-adv-x="1079" 
d="M966 1040v-1040h-165v169h-4q-46 -90 -128 -138.5t-202 -48.5q-114 0 -194.5 46.5t-123 132.5t-42.5 204v675h174v-644q0 -127 59.5 -193.5t180.5 -66.5q84 0 145 36.5t93.5 102t32.5 154.5v611h174zM468 1190l-234 300h191l178 -300h-135z" />
    <glyph glyph-name="uacute" unicode="&#xfa;" horiz-adv-x="1079" 
d="M966 1040v-1040h-165v169h-4q-46 -90 -128 -138.5t-202 -48.5q-114 0 -194.5 46.5t-123 132.5t-42.5 204v675h174v-644q0 -127 59.5 -193.5t180.5 -66.5q84 0 145 36.5t93.5 102t32.5 154.5v611h174zM606 1190h-135l178 300h191z" />
    <glyph glyph-name="ucircumflex" unicode="&#xfb;" horiz-adv-x="1079" 
d="M966 1040v-1040h-165v169h-4q-46 -90 -128 -138.5t-202 -48.5q-114 0 -194.5 46.5t-123 132.5t-42.5 204v675h174v-644q0 -127 59.5 -193.5t180.5 -66.5q84 0 145 36.5t93.5 102t32.5 154.5v611h174zM604 1490l249 -300h-158l-155 189h-6l-155 -189h-158l249 300h134z
" />
    <glyph glyph-name="udieresis" unicode="&#xfc;" horiz-adv-x="1079" 
d="M966 1040v-1040h-165v169h-4q-46 -90 -128 -138.5t-202 -48.5q-114 0 -194.5 46.5t-123 132.5t-42.5 204v675h174v-644q0 -127 59.5 -193.5t180.5 -66.5q84 0 145 36.5t93.5 102t32.5 154.5v611h174zM350 1225q-45 0 -77 32t-32 77q0 46 32 77.5t77 31.5q46 0 77.5 -31.5
t31.5 -77.5q0 -45 -31.5 -77t-77.5 -32zM724 1225q-45 0 -77 32t-32 77q0 46 32 77.5t77 31.5q46 0 77.5 -31.5t31.5 -77.5q0 -45 -31.5 -77t-77.5 -32z" />
    <glyph glyph-name="yacute" unicode="&#xfd;" horiz-adv-x="996" 
d="M199 -389q-16 0 -38.5 1.5t-36.5 4.5v146q14 -3 32.5 -4t35.5 -1q73 0 117 38.5t74 129.5l24 73l-384 1041h186l288 -866h3l288 866h183l-409 -1113q-33 -91 -68 -152t-76.5 -97t-95 -51.5t-123.5 -15.5zM568 1190h-135l178 300h191z" />
    <glyph glyph-name="thorn" unicode="&#xfe;" horiz-adv-x="1133" 
d="M633 1058q132 0 230 -66t152 -187t54 -285q0 -163 -54 -284t-152 -187.5t-230 -66.5q-111 0 -197 46t-128 128h-15v-502h-172v1789h165v-577h15q50 90 138 141t194 51zM590 135q95 0 162 46.5t103 132.5t36 206t-36 206t-103 132.5t-161 46.5q-92 0 -160 -47t-105 -133.5
t-37 -204.5t37 -204.5t104.5 -133.5t159.5 -47z" />
    <glyph glyph-name="ydieresis" unicode="&#xff;" horiz-adv-x="996" 
d="M199 -389q-16 0 -38.5 1.5t-36.5 4.5v146q14 -3 32.5 -4t35.5 -1q73 0 117 38.5t74 129.5l24 73l-384 1041h186l288 -866h3l288 866h183l-409 -1113q-33 -91 -68 -152t-76.5 -97t-95 -51.5t-123.5 -15.5zM312 1225q-45 0 -77 32t-32 77q0 46 32 77.5t77 31.5
q46 0 77.5 -31.5t31.5 -77.5q0 -45 -31.5 -77t-77.5 -32zM686 1225q-45 0 -77 32t-32 77q0 46 32 77.5t77 31.5q46 0 77.5 -31.5t31.5 -77.5q0 -45 -31.5 -77t-77.5 -32z" />
    <glyph glyph-name="Amacron" unicode="&#x100;" horiz-adv-x="1292" 
d="M1077 0l-145 413h-574l-145 -413h-189l532 1443h178l532 -1443h-189zM642 1224l-231 -658h468l-231 658h-6zM932 1768v-121h-574v121h574z" />
    <glyph glyph-name="amacron" unicode="&#x101;" horiz-adv-x="1028" 
d="M455 130q82 0 147.5 35t104 95t38.5 135v85l-278 -17q-105 -7 -162.5 -51t-57.5 -118t57 -119t151 -45zM416 -18q-103 0 -181 39t-121.5 109t-43.5 164q0 134 98.5 214t278.5 90l298 17v87q0 95 -60 149t-168 54q-100 0 -162 -44.5t-78 -120.5h-168q6 90 57 162
t141.5 114t213.5 42q122 0 211.5 -41.5t138 -118t48.5 -179.5v-719h-165v179h-4q-31 -59 -83 -103.5t-116.5 -69t-134.5 -24.5zM796 1385v-121h-574v121h574z" />
    <glyph glyph-name="Abreve" unicode="&#x102;" horiz-adv-x="1292" 
d="M1077 0l-145 413h-574l-145 -413h-189l532 1443h178l532 -1443h-189zM642 1224l-231 -658h468l-231 658h-6zM324 1848h127q9 -91 62 -142.5t132 -51.5t132 51.5t62 142.5h127q-7 -82 -46.5 -151.5t-109 -112t-165.5 -42.5t-165.5 42.5t-109 112t-46.5 151.5z" />
    <glyph glyph-name="abreve" unicode="&#x103;" horiz-adv-x="1028" 
d="M455 130q82 0 147.5 35t104 95t38.5 135v85l-278 -17q-105 -7 -162.5 -51t-57.5 -118t57 -119t151 -45zM416 -18q-103 0 -181 39t-121.5 109t-43.5 164q0 134 98.5 214t278.5 90l298 17v87q0 95 -60 149t-168 54q-100 0 -162 -44.5t-78 -120.5h-168q6 90 57 162
t141.5 114t213.5 42q122 0 211.5 -41.5t138 -118t48.5 -179.5v-719h-165v179h-4q-31 -59 -83 -103.5t-116.5 -69t-134.5 -24.5zM197 1490h131q0 -92 47.5 -145t133.5 -53t133.5 53t47.5 145h131q0 -91 -37 -161t-106.5 -109.5t-168.5 -39.5t-169 39.5t-106.5 109.5
t-36.5 161z" />
    <glyph glyph-name="Aogonek" unicode="&#x104;" horiz-adv-x="1292" 
d="M411 566h468l-231 658h-6zM734 1443l532 -1443q-43 -19 -84.5 -46t-69.5 -62.5t-28 -80.5q0 -37 17 -57.5t42.5 -28.5t51.5 -8q18 0 36 2.5t27 5.5v-123q-47 -14 -96 -14q-59 0 -112.5 19t-86.5 60t-33 106q0 61 32 119t114 112l-144 409h-574l-145 -413h-189l532 1443
h178z" />
    <glyph glyph-name="aogonek" unicode="&#x105;" horiz-adv-x="1028" 
d="M745 395v85l-278 -17q-105 -7 -162.5 -51t-57.5 -118t57 -119t151 -45q82 0 147.5 35t104 95t38.5 135zM919 719v-719q-42 -19 -84 -46t-70 -62.5t-28 -80.5q0 -37 17 -57.5t42.5 -28.5t51.5 -8q18 0 36 2.5t27 5.5v-123q-47 -14 -96 -14q-60 0 -113 19t-86 60t-33 106
q0 66 37.5 128t133.5 118v160h-4q-31 -59 -83 -103.5t-116.5 -69t-134.5 -24.5q-103 0 -181 39t-121.5 109t-43.5 164q0 134 98.5 214t278.5 90l298 17v87q0 95 -60 149t-168 54q-100 0 -162 -44.5t-78 -120.5h-168q6 90 57 162t141.5 114t213.5 42q122 0 211.5 -41.5
t138 -118t48.5 -179.5z" />
    <glyph glyph-name="Cacute" unicode="&#x106;" horiz-adv-x="1405" 
d="M733 -24q-149 0 -269 52t-205 149.5t-130.5 235.5t-45.5 309q0 170 45.5 307t131 235t205.5 150.5t268 52.5q118 0 219.5 -34t180.5 -97.5t130.5 -151.5t68.5 -196h-182q-23 94 -82.5 164.5t-145.5 109.5t-189 39q-106 0 -191.5 -41t-146.5 -117t-94 -182.5t-33 -238.5
q0 -177 57 -307.5t161.5 -201.5t247.5 -71q159 0 268 73t148 205h182q-33 -142 -113.5 -241.5t-203 -151t-282.5 -51.5zM815 1559h-135l181 290h196z" />
    <glyph glyph-name="cacute" unicode="&#x107;" horiz-adv-x="1026" 
d="M976 699h-170q-13 57 -46.5 103.5t-88 74.5t-131.5 28q-90 0 -158 -47t-106 -133.5t-38 -204.5q0 -121 38.5 -207t107 -132t158.5 -46q107 0 175 53t90 147h171q-13 -103 -72 -183t-153 -125t-212 -45q-144 0 -252 64.5t-168 185t-60 288.5q0 123 34 222t97.5 170
t151 108.5t195.5 37.5q98 0 175 -29.5t132.5 -80t88.5 -115t41 -134.5zM606 1190h-135l178 300h191z" />
    <glyph glyph-name="Ccircumflex" unicode="&#x108;" horiz-adv-x="1405" 
d="M733 -24q-149 0 -269 52t-205 149.5t-130.5 235.5t-45.5 309q0 170 45.5 307t131 235t205.5 150.5t268 52.5q118 0 219.5 -34t180.5 -97.5t130.5 -151.5t68.5 -196h-182q-23 94 -82.5 164.5t-145.5 109.5t-189 39q-106 0 -191.5 -41t-146.5 -117t-94 -182.5t-33 -238.5
q0 -177 57 -307.5t161.5 -201.5t247.5 -71q159 0 268 73t148 205h182q-33 -142 -113.5 -241.5t-203 -151t-282.5 -51.5zM666 1849h134l269 -298h-163l-170 192h-6l-170 -192h-163z" />
    <glyph glyph-name="ccircumflex" unicode="&#x109;" horiz-adv-x="1026" 
d="M976 699h-170q-13 57 -46.5 103.5t-88 74.5t-131.5 28q-90 0 -158 -47t-106 -133.5t-38 -204.5q0 -121 38.5 -207t107 -132t158.5 -46q107 0 175 53t90 147h171q-13 -103 -72 -183t-153 -125t-212 -45q-144 0 -252 64.5t-168 185t-60 288.5q0 123 34 222t97.5 170
t151 108.5t195.5 37.5q98 0 175 -29.5t132.5 -80t88.5 -115t41 -134.5zM604 1490l249 -300h-158l-155 189h-6l-155 -189h-158l249 300h134z" />
    <glyph glyph-name="Cdotaccent" unicode="&#x10a;" horiz-adv-x="1405" 
d="M733 -24q-149 0 -269 52t-205 149.5t-130.5 235.5t-45.5 309q0 170 45.5 307t131 235t205.5 150.5t268 52.5q118 0 219.5 -34t180.5 -97.5t130.5 -151.5t68.5 -196h-182q-23 94 -82.5 164.5t-145.5 109.5t-189 39q-106 0 -191.5 -41t-146.5 -117t-94 -182.5t-33 -238.5
q0 -177 57 -307.5t161.5 -201.5t247.5 -71q159 0 268 73t148 205h182q-33 -142 -113.5 -241.5t-203 -151t-282.5 -51.5zM733 1608q-45 0 -77 32t-32 77q0 46 32 77.5t77 31.5q46 0 77.5 -31.5t31.5 -77.5q0 -45 -31.5 -77t-77.5 -32z" />
    <glyph glyph-name="cdotaccent" unicode="&#x10b;" horiz-adv-x="1026" 
d="M976 699h-170q-13 57 -46.5 103.5t-88 74.5t-131.5 28q-90 0 -158 -47t-106 -133.5t-38 -204.5q0 -121 38.5 -207t107 -132t158.5 -46q107 0 175 53t90 147h171q-13 -103 -72 -183t-153 -125t-212 -45q-144 0 -252 64.5t-168 185t-60 288.5q0 123 34 222t97.5 170
t151 108.5t195.5 37.5q98 0 175 -29.5t132.5 -80t88.5 -115t41 -134.5zM537 1225q-45 0 -77 32t-32 77q0 46 32 77.5t77 31.5q46 0 77.5 -31.5t31.5 -77.5q0 -45 -31.5 -77t-77.5 -32z" />
    <glyph glyph-name="Ccaron" unicode="&#x10c;" horiz-adv-x="1405" 
d="M733 -24q-149 0 -269 52t-205 149.5t-130.5 235.5t-45.5 309q0 170 45.5 307t131 235t205.5 150.5t268 52.5q118 0 219.5 -34t180.5 -97.5t130.5 -151.5t68.5 -196h-182q-23 94 -82.5 164.5t-145.5 109.5t-189 39q-106 0 -191.5 -41t-146.5 -117t-94 -182.5t-33 -238.5
q0 -177 57 -307.5t161.5 -201.5t247.5 -71q159 0 268 73t148 205h182q-33 -142 -113.5 -241.5t-203 -151t-282.5 -51.5zM666 1551l-269 298h163l170 -192h6l170 192h163l-269 -298h-134z" />
    <glyph glyph-name="ccaron" unicode="&#x10d;" horiz-adv-x="1026" 
d="M976 699h-170q-13 57 -46.5 103.5t-88 74.5t-131.5 28q-90 0 -158 -47t-106 -133.5t-38 -204.5q0 -121 38.5 -207t107 -132t158.5 -46q107 0 175 53t90 147h171q-13 -103 -72 -183t-153 -125t-212 -45q-144 0 -252 64.5t-168 185t-60 288.5q0 123 34 222t97.5 170
t151 108.5t195.5 37.5q98 0 175 -29.5t132.5 -80t88.5 -115t41 -134.5zM604 1190h-134l-249 300h158l155 -189h6l155 189h158z" />
    <glyph glyph-name="Dcaron" unicode="&#x10e;" horiz-adv-x="1390" 
d="M139 1443h485q214 0 366.5 -85.5t233.5 -247t81 -388.5t-81 -389t-233 -247.5t-367 -85.5h-485v1443zM319 1281v-1119h293q163 0 277 65t173 189.5t59 303.5q0 271 -131.5 416t-377.5 145h-293zM482 1551l-269 298h163l170 -192h6l170 192h163l-269 -298h-134z" />
    <glyph glyph-name="dcaron" unicode="&#x10f;" horiz-adv-x="1318" 
d="M1157 1498h149l-30 -471h-119v471zM506 -18q-99 0 -181 38t-141 109t-91 170t-32 221t32 221t90.5 170t139.5 109t179 38q112 0 198.5 -51t132.5 -136h4v572h174v-1443h-166v176h-3q-50 -90 -136.5 -142t-199.5 -52zM539 905q-92 0 -159.5 -47.5t-104 -133.5t-36.5 -204
t36.5 -204.5t104 -133.5t159.5 -47q90 0 157 47.5t104.5 134.5t37.5 203t-37.5 202.5t-104.5 134.5t-157 48z" />
    <glyph glyph-name="Dcroat" unicode="&#x110;" horiz-adv-x="1390" 
d="M320 162h293q163 0 277 65t173 189.5t59 303.5q0 271 -131.5 416t-377.5 145h-293v-456h327v-162h-327v-501zM140 1443h485q214 0 366.5 -85.5t233.5 -247t81 -388.5t-81 -389t-233 -247.5t-367 -85.5h-485v663h-134v162h134v618z" />
    <glyph glyph-name="dcroat" unicode="&#x111;" horiz-adv-x="1134" 
d="M539 135q90 0 157 47.5t104.5 134.5t37.5 203t-37.5 202.5t-104.5 134.5t-157 48q-92 0 -159.5 -47.5t-104 -133.5t-36.5 -204t36.5 -204.5t104 -133.5t159.5 -47zM1134 1344v-124h-123v-1220h-166v176h-3q-50 -90 -136.5 -142t-199.5 -52q-99 0 -181 38t-141 109
t-91 170t-32 221t32 221t90.5 170t139.5 109t179 38q112 0 198.5 -51t132.5 -136h4v349h-239v124h239v99h174v-99h123z" />
    <glyph glyph-name="Emacron" unicode="&#x112;" horiz-adv-x="1131" 
d="M1033 162v-162h-894v1443h894v-162h-714v-463h677v-160h-677v-496h714zM873 1768v-121h-574v121h574z" />
    <glyph glyph-name="emacron" unicode="&#x113;" horiz-adv-x="1049" 
d="M529 907q-82 0 -144.5 -38.5t-100 -105.5t-43.5 -154h565q-2 87 -37 154t-96.5 105.5t-143.5 38.5zM802 298h171q-11 -68 -48 -126t-94.5 -100.5t-131.5 -66t-159 -23.5q-149 0 -256.5 65.5t-165 185t-57.5 283.5q0 121 33 220.5t95 171.5t148.5 111t194.5 39
q141 0 242.5 -64t156.5 -181t55 -274v-66h-746v-10q0 -99 37 -173.5t105.5 -115.5t161.5 -41q99 0 167.5 45.5t90.5 119.5zM819 1385v-121h-574v121h574z" />
    <glyph glyph-name="Ebreve" unicode="&#x114;" horiz-adv-x="1131" 
d="M1033 162v-162h-894v1443h894v-162h-714v-463h677v-160h-677v-496h714zM265 1848h127q9 -91 62 -142.5t132 -51.5t132 51.5t62 142.5h127q-6 -82 -46 -151.5t-109.5 -112t-165.5 -42.5t-165.5 42.5t-109.5 112t-46 151.5z" />
    <glyph glyph-name="ebreve" unicode="&#x115;" horiz-adv-x="1049" 
d="M529 907q-82 0 -144.5 -38.5t-100 -105.5t-43.5 -154h565q-2 87 -37 154t-96.5 105.5t-143.5 38.5zM802 298h171q-11 -68 -48 -126t-94.5 -100.5t-131.5 -66t-159 -23.5q-149 0 -256.5 65.5t-165 185t-57.5 283.5q0 121 33 220.5t95 171.5t148.5 111t194.5 39
q141 0 242.5 -64t156.5 -181t55 -274v-66h-746v-10q0 -99 37 -173.5t105.5 -115.5t161.5 -41q99 0 167.5 45.5t90.5 119.5zM220 1490h131q0 -92 48 -145t133 -53t133 53t48 145h131q0 -91 -36.5 -161t-106.5 -109.5t-169 -39.5t-169 39.5t-106.5 109.5t-36.5 161z" />
    <glyph glyph-name="Edotaccent" unicode="&#x116;" horiz-adv-x="1131" 
d="M1033 162v-162h-894v1443h894v-162h-714v-463h677v-160h-677v-496h714zM586 1608q-45 0 -77 32t-32 77q0 46 32 77.5t77 31.5q46 0 77.5 -31.5t31.5 -77.5q0 -45 -31.5 -77t-77.5 -32z" />
    <glyph glyph-name="edotaccent" unicode="&#x117;" horiz-adv-x="1049" 
d="M529 907q-82 0 -144.5 -38.5t-100 -105.5t-43.5 -154h565q-2 87 -37 154t-96.5 105.5t-143.5 38.5zM802 298h171q-11 -68 -48 -126t-94.5 -100.5t-131.5 -66t-159 -23.5q-149 0 -256.5 65.5t-165 185t-57.5 283.5q0 121 33 220.5t95 171.5t148.5 111t194.5 39
q141 0 242.5 -64t156.5 -181t55 -274v-66h-746v-10q0 -99 37 -173.5t105.5 -115.5t161.5 -41q99 0 167.5 45.5t90.5 119.5zM532 1225q-45 0 -77 32t-32 77q0 46 32 77.5t77 31.5q46 0 77.5 -31.5t31.5 -77.5q0 -45 -31.5 -77t-77.5 -32z" />
    <glyph glyph-name="Eogonek" unicode="&#x118;" horiz-adv-x="1131" 
d="M1033 1281h-714v-463h677v-160h-677v-496h714v-162q-42 -19 -84 -46t-70 -62.5t-28 -80.5q0 -37 17 -57.5t42.5 -28.5t51.5 -8q18 0 36 2.5t27 5.5v-123q-47 -14 -96 -14q-60 0 -113 19t-86 60t-33 106q0 60 31 117.5t109 109.5h-698v1443h894v-162z" />
    <glyph glyph-name="eogonek" unicode="&#x119;" horiz-adv-x="1049" 
d="M241 609h565q-2 87 -37 154t-96.5 105.5t-143.5 38.5t-144.5 -38.5t-100 -105.5t-43.5 -154zM986 473h-746v-10q0 -99 37 -173.5t105.5 -115.5t161.5 -41q99 0 167.5 45.5t90.5 119.5h171q-9 -53 -33.5 -100.5t-62.5 -85.5v0l-0.5 -0.5l-0.5 -0.5q-10 -10 -20.5 -19
t-20.5 -17q-46 -40 -90.5 -83t-73.5 -88.5t-29 -91.5q0 -14 6.5 -36.5t29 -40t69.5 -17.5q16 0 35 2.5t41 8.5v-123q-26 -9 -55 -14t-58 -5q-59 0 -110.5 19.5t-83 58.5t-31.5 100q0 58 29 111t97 110q-17 -2 -35 -3t-36 -1q-149 0 -256.5 65.5t-165 185t-57.5 283.5
q0 121 33 220.5t95 171.5t148.5 111t194.5 39q141 0 242.5 -64t156.5 -181t55 -274v-66z" />
    <glyph glyph-name="Ecaron" unicode="&#x11a;" horiz-adv-x="1131" 
d="M1033 162v-162h-894v1443h894v-162h-714v-463h677v-160h-677v-496h714zM519 1551l-269 298h163l170 -192h6l170 192h163l-269 -298h-134z" />
    <glyph glyph-name="ecaron" unicode="&#x11b;" horiz-adv-x="1049" 
d="M529 907q-82 0 -144.5 -38.5t-100 -105.5t-43.5 -154h565q-2 87 -37 154t-96.5 105.5t-143.5 38.5zM802 298h171q-11 -68 -48 -126t-94.5 -100.5t-131.5 -66t-159 -23.5q-149 0 -256.5 65.5t-165 185t-57.5 283.5q0 121 33 220.5t95 171.5t148.5 111t194.5 39
q141 0 242.5 -64t156.5 -181t55 -274v-66h-746v-10q0 -99 37 -173.5t105.5 -115.5t161.5 -41q99 0 167.5 45.5t90.5 119.5zM599 1190h-134l-249 300h158l155 -189h6l155 189h158z" />
    <glyph glyph-name="Gcircumflex" unicode="&#x11c;" horiz-adv-x="1447" 
d="M1356 597q0 -195 -73 -334t-209.5 -213t-329.5 -74q-151 0 -273 53t-208.5 151.5t-133 237.5t-46.5 311q0 169 46 305t133 233t209 148.5t273 51.5q117 0 218 -33t180.5 -95t132 -149t72.5 -195h-189q-45 146 -153.5 226t-260.5 80q-149 0 -255.5 -68.5t-163.5 -196.5
t-57 -306q0 -182 57.5 -313.5t164.5 -203t254 -71.5q96 0 175.5 29.5t136.5 84t88.5 129t31.5 165.5v26h-407v158h587v-137zM677 1849h134l269 -298h-163l-170 192h-6l-170 -192h-163z" />
    <glyph glyph-name="gcircumflex" unicode="&#x11d;" horiz-adv-x="1125" 
d="M535 145q90 0 158 47t106 132.5t38 199.5t-38 200t-106 133.5t-158 47.5t-156.5 -46.5t-103 -132.5t-36.5 -202t36.5 -201.5t103 -131.5t156.5 -46zM541 -392q-86 0 -161 22.5t-133.5 64t-96 97.5t-48.5 122h179q26 -71 98 -114.5t169 -43.5q90 0 154.5 32.5t99.5 91
t35 135.5v164h-4q-48 -85 -136 -136t-197 -51q-133 0 -231.5 65.5t-153 185t-54.5 281.5q0 163 54.5 283t154 185.5t234.5 65.5q110 0 198 -51t140 -142h3v175h166v-1019q0 -124 -57.5 -217t-163 -144.5t-249.5 -51.5zM604 1490l249 -300h-158l-155 189h-6l-155 -189h-158
l249 300h134z" />
    <glyph glyph-name="Gbreve" unicode="&#x11e;" horiz-adv-x="1447" 
d="M1356 597q0 -195 -73 -334t-209.5 -213t-329.5 -74q-151 0 -273 53t-208.5 151.5t-133 237.5t-46.5 311q0 169 46 305t133 233t209 148.5t273 51.5q117 0 218 -33t180.5 -95t132 -149t72.5 -195h-189q-45 146 -153.5 226t-260.5 80q-149 0 -255.5 -68.5t-163.5 -196.5
t-57 -306q0 -182 57.5 -313.5t164.5 -203t254 -71.5q96 0 175.5 29.5t136.5 84t88.5 129t31.5 165.5v26h-407v158h587v-137zM423 1848h127q9 -91 62 -142.5t132 -51.5t132 51.5t62 142.5h127q-6 -82 -46 -151.5t-109.5 -112t-165.5 -42.5t-165.5 42.5t-109.5 112t-46 151.5z
" />
    <glyph glyph-name="gbreve" unicode="&#x11f;" horiz-adv-x="1125" 
d="M535 145q90 0 158 47t106 132.5t38 199.5t-38 200t-106 133.5t-158 47.5t-156.5 -46.5t-103 -132.5t-36.5 -202t36.5 -201.5t103 -131.5t156.5 -46zM541 -392q-86 0 -161 22.5t-133.5 64t-96 97.5t-48.5 122h179q26 -71 98 -114.5t169 -43.5q90 0 154.5 32.5t99.5 91
t35 135.5v164h-4q-48 -85 -136 -136t-197 -51q-133 0 -231.5 65.5t-153 185t-54.5 281.5q0 163 54.5 283t154 185.5t234.5 65.5q110 0 198 -51t140 -142h3v175h166v-1019q0 -124 -57.5 -217t-163 -144.5t-249.5 -51.5zM225 1490h131q0 -92 47.5 -145t133.5 -53t133.5 53
t47.5 145h131q0 -91 -37 -161t-106.5 -109.5t-168.5 -39.5t-169 39.5t-106.5 109.5t-36.5 161z" />
    <glyph glyph-name="Gdotaccent" unicode="&#x120;" horiz-adv-x="1447" 
d="M1356 597q0 -195 -73 -334t-209.5 -213t-329.5 -74q-151 0 -273 53t-208.5 151.5t-133 237.5t-46.5 311q0 169 46 305t133 233t209 148.5t273 51.5q117 0 218 -33t180.5 -95t132 -149t72.5 -195h-189q-45 146 -153.5 226t-260.5 80q-149 0 -255.5 -68.5t-163.5 -196.5
t-57 -306q0 -182 57.5 -313.5t164.5 -203t254 -71.5q96 0 175.5 29.5t136.5 84t88.5 129t31.5 165.5v26h-407v158h587v-137zM744 1608q-45 0 -77 32t-32 77q0 46 32 77.5t77 31.5q46 0 77.5 -31.5t31.5 -77.5q0 -45 -31.5 -77t-77.5 -32z" />
    <glyph glyph-name="gdotaccent" unicode="&#x121;" horiz-adv-x="1125" 
d="M535 145q90 0 158 47t106 132.5t38 199.5t-38 200t-106 133.5t-158 47.5t-156.5 -46.5t-103 -132.5t-36.5 -202t36.5 -201.5t103 -131.5t156.5 -46zM541 -392q-86 0 -161 22.5t-133.5 64t-96 97.5t-48.5 122h179q26 -71 98 -114.5t169 -43.5q90 0 154.5 32.5t99.5 91
t35 135.5v164h-4q-48 -85 -136 -136t-197 -51q-133 0 -231.5 65.5t-153 185t-54.5 281.5q0 163 54.5 283t154 185.5t234.5 65.5q110 0 198 -51t140 -142h3v175h166v-1019q0 -124 -57.5 -217t-163 -144.5t-249.5 -51.5zM537 1225q-45 0 -77 32t-32 77q0 46 32 77.5t77 31.5
q46 0 77.5 -31.5t31.5 -77.5q0 -45 -31.5 -77t-77.5 -32z" />
    <glyph glyph-name="Gcommaaccent" unicode="&#x122;" horiz-adv-x="1447" 
d="M1356 597q0 -195 -73 -334t-209.5 -213t-329.5 -74q-151 0 -273 53t-208.5 151.5t-133 237.5t-46.5 311q0 169 46 305t133 233t209 148.5t273 51.5q117 0 218 -33t180.5 -95t132 -149t72.5 -195h-189q-45 146 -153.5 226t-260.5 80q-149 0 -255.5 -68.5t-163.5 -196.5
t-57 -306q0 -182 57.5 -313.5t164.5 -203t254 -71.5q96 0 175.5 29.5t136.5 84t88.5 129t31.5 165.5v26h-407v158h587v-137zM689 -486h-132l108 359h158z" />
    <glyph glyph-name="gcommaaccent" unicode="&#x123;" horiz-adv-x="1125" 
d="M535 145q90 0 158 47t106 132.5t38 199.5t-38 200t-106 133.5t-158 47.5t-156.5 -46.5t-103 -132.5t-36.5 -202t36.5 -201.5t103 -131.5t156.5 -46zM541 -392q-86 0 -161 22.5t-133.5 64t-96 97.5t-48.5 122h179q26 -71 98 -114.5t169 -43.5q90 0 154.5 32.5t99.5 91
t35 135.5v164h-4q-48 -85 -136 -136t-197 -51q-133 0 -231.5 65.5t-153 185t-54.5 281.5q0 163 54.5 283t154 185.5t234.5 65.5q110 0 198 -51t140 -142h3v175h166v-1019q0 -124 -57.5 -217t-163 -144.5t-249.5 -51.5zM592 1549h132l-108 -359h-158z" />
    <glyph glyph-name="Hcircumflex" unicode="&#x124;" horiz-adv-x="1432" 
d="M1291 0h-180v657h-792v-657h-180v1443h180v-624h792v624h180v-1443zM648 1849h134l269 -298h-163l-170 192h-6l-170 -192h-163z" />
    <glyph glyph-name="hcircumflex" unicode="&#x125;" horiz-adv-x="1104" 
d="M122 0v1443h174v-569h4q44 87 128 135.5t202 48.5q114 0 196 -48t126 -135t44 -203v-672h-174v640q0 124 -62 194t-184 70q-86 0 -149 -37t-97 -104t-34 -157v-606h-174zM143 1849h134l269 -298h-163l-170 192h-6l-170 -192h-163z" />
    <glyph glyph-name="Hbar" unicode="&#x126;" horiz-adv-x="1432" 
d="M1112 819v250h-792v-250h792zM1436 1211v-142h-144v-1069h-180v657h-792v-657h-180v1069h-144v142h144v232h180v-232h792v232h180v-232h144z" />
    <glyph glyph-name="hbar" unicode="&#x127;" horiz-adv-x="1104" 
d="M296 874h4q44 87 128 135.5t202 48.5q114 0 196 -48t126 -135t44 -203v-672h-174v640q0 124 -62 194t-184 70q-86 0 -149 -37t-97 -104t-34 -157v-606h-174v1220h-123v124h123v99h174v-99h239v-124h-239v-346z" />
    <glyph glyph-name="Itilde" unicode="&#x128;" horiz-adv-x="460" 
d="M320 0h-180v1443h180v-1443zM345 1584q-42 0 -72 14t-52.5 34t-40.5 40.5t-35.5 34.5t-38.5 14q-33 0 -53.5 -29.5t-20.5 -99.5h-117q0 117 53 183t146 66q42 0 72 -14t51 -34.5t38.5 -40.5t34.5 -34t39 -14q36 0 57.5 30.5t21.5 98.5h117q0 -116 -53 -182.5t-147 -66.5z
" />
    <glyph glyph-name="itilde" unicode="&#x129;" horiz-adv-x="418" 
d="M122 0v1040h174v-1040h-174zM324 1201q-42 0 -72 14t-52.5 34.5t-40.5 40.5t-35.5 34t-38.5 14q-33 0 -53.5 -29t-20.5 -100h-117q0 117 53 183t146 66q42 0 72 -14t51 -34t38.5 -40.5t34.5 -34.5t39 -14q36 0 57.5 30.5t21.5 98.5h117q0 -116 -53 -182.5t-147 -66.5z
" />
    <glyph glyph-name="Imacron" unicode="&#x12a;" horiz-adv-x="460" 
d="M320 0h-180v1443h180v-1443zM517 1768v-121h-574v121h574z" />
    <glyph glyph-name="imacron" unicode="&#x12b;" horiz-adv-x="418" 
d="M122 0v1040h174v-1040h-174zM453 1385v-121h-488v121h488z" />
    <glyph glyph-name="Ibreve" unicode="&#x12c;" horiz-adv-x="460" 
d="M320 0h-180v1443h180v-1443zM-91 1848h127q9 -91 62 -142.5t132 -51.5t132 51.5t62 142.5h127q-7 -82 -46.5 -151.5t-109 -112t-165.5 -42.5t-165.5 42.5t-109 112t-46.5 151.5z" />
    <glyph glyph-name="ibreve" unicode="&#x12d;" horiz-adv-x="418" 
d="M122 0v1040h174v-1040h-174zM-103 1490h131q0 -92 48 -145t133 -53t133 53t48 145h131q0 -91 -37 -161t-106.5 -109.5t-168.5 -39.5t-169 39.5t-106.5 109.5t-36.5 161z" />
    <glyph glyph-name="Iogonek" unicode="&#x12e;" horiz-adv-x="460" 
d="M320 1443v-1443q-42 -19 -84 -46t-70 -62.5t-28 -80.5q0 -37 17 -57.5t42.5 -28.5t51.5 -8q18 0 36 2.5t27 5.5v-123q-47 -14 -96 -14q-60 0 -113 19t-86 60t-33 106q0 63 34 122.5t122 114.5v1433h180z" />
    <glyph glyph-name="iogonek" unicode="&#x12f;" horiz-adv-x="418" 
d="M209 1225q-45 0 -77 32t-32 77q0 46 32 77.5t77 31.5q46 0 77.5 -31.5t31.5 -77.5q0 -45 -31.5 -77t-77.5 -32zM122 14v1026h174v-1040q-42 -19 -84 -46t-70 -62.5t-28 -80.5q0 -37 17 -57.5t42.5 -28.5t51.5 -8q18 0 36 2.5t27 5.5v-123q-47 -14 -96 -14q-60 0 -113 19
t-86 60t-33 106t35.5 125t126.5 116z" />
    <glyph glyph-name="Idotaccent" unicode="&#x130;" horiz-adv-x="460" 
d="M319 0h-180v1443h180v-1443zM229 1608q-45 0 -77 32t-32 77q0 46 32 77.5t77 31.5q46 0 77.5 -31.5t31.5 -77.5q0 -45 -31.5 -77t-77.5 -32z" />
    <glyph glyph-name="dotlessi" unicode="&#x131;" horiz-adv-x="418" 
d="M121 0v1040h174v-1040h-174z" />
    <glyph glyph-name="IJ" unicode="&#x132;" horiz-adv-x="1474" 
d="M319 0h-180v1443h180v-1443zM501 339h179q2 -61 31.5 -107.5t80.5 -73t116 -26.5q119 0 182 69.5t63 201.5v1040h180v-1041q0 -137 -50.5 -234.5t-145.5 -149.5t-228 -52q-90 0 -165 27.5t-129 77t-84 118t-30 150.5z" />
    <glyph glyph-name="ij" unicode="&#x133;" horiz-adv-x="836" 
d="M121 0v1040h174v-1040h-174zM208 1225q-45 0 -77 32t-32 77q0 46 32 77.5t77 31.5q46 0 77.5 -31.5t31.5 -77.5q0 -45 -31.5 -77t-77.5 -32zM713 1040v-1091q0 -158 -78 -232.5t-244 -74.5h-17t-16 1v145h13.5h13.5q85 0 119.5 36t34.5 123v1093h174zM625 1225
q-45 0 -77 32t-32 77q0 46 32 77.5t77 31.5q46 0 77.5 -31.5t31.5 -77.5q0 -45 -31.5 -77t-77.5 -32z" />
    <glyph glyph-name="Jcircumflex" unicode="&#x134;" horiz-adv-x="1014" 
d="M41 339h179q2 -61 31.5 -107.5t80.5 -73t116 -26.5q119 0 182 69.5t63 201.5v1040h180v-1041q0 -137 -50.5 -234.5t-145.5 -149.5t-228 -52q-90 0 -165 27.5t-129 77t-84 118t-30 150.5zM716 1849h134l269 -298h-163l-170 192h-6l-170 -192h-163z" />
    <glyph glyph-name="jcircumflex" unicode="&#x135;" horiz-adv-x="418" 
d="M296 1040v-1091q0 -158 -78 -232.5t-244 -74.5h-17t-16 1v145h13.5h13.5q85 0 119.5 36t34.5 123v1093h174zM275 1490l249 -300h-158l-155 189h-6l-155 -189h-158l249 300h134z" />
    <glyph glyph-name="Kcommaaccent" unicode="&#x136;" horiz-adv-x="1260" 
d="M319 0h-180v1443h180v-704h10l637 704h227l-593 -639l646 -804h-230l-541 676l-156 -172v-504zM553 -486h-132l108 359h158z" />
    <glyph glyph-name="kcommaaccent" unicode="&#x137;" horiz-adv-x="994" 
d="M295 578l460 462h211l-451 -449l465 -591h-202l-386 484l-97 -92v-392h-174v1443h174v-865zM481 -486h-132l108 359h158z" />
    <glyph glyph-name="Lacute" unicode="&#x139;" horiz-adv-x="1074" 
d="M1015 162v-162h-876v1443h180v-1281h696zM311 1559h-135l181 290h196z" />
    <glyph glyph-name="lacute" unicode="&#x13a;" horiz-adv-x="418" 
d="M121 0v1443h174v-1443h-174zM290 1559h-135l181 290h196z" />
    <glyph glyph-name="Lcommaaccent" unicode="&#x13b;" horiz-adv-x="1074" 
d="M1015 162v-162h-876v1443h180v-1281h696zM522 -486h-132l108 359h158z" />
    <glyph glyph-name="lcommaaccent" unicode="&#x13c;" horiz-adv-x="418" 
d="M121 0v1443h174v-1443h-174zM153 -486h-132l108 359h158z" />
    <glyph glyph-name="Lcaron" unicode="&#x13d;" horiz-adv-x="1074" 
d="M1015 162v-162h-876v1443h180v-1281h696zM600 1490h170l-50 -488h-120v488z" />
    <glyph glyph-name="lcaron" unicode="&#x13e;" horiz-adv-x="602" 
d="M121 0v1443h174v-1443h-174zM441 1490h149l-30 -471h-119v471z" />
    <glyph glyph-name="Lslash" unicode="&#x141;" horiz-adv-x="1074" 
d="M319 162h696v-162h-876v694l-122 -57v142l122 57v607h180v-523l332 154v-142l-332 -154v-616z" />
    <glyph glyph-name="lslash" unicode="&#x142;" horiz-adv-x="418" 
d="M417 962v-140l-121 -59v-763h-174v679l-121 -59v141l121 58v624h174v-539z" />
    <glyph glyph-name="Nacute" unicode="&#x143;" horiz-adv-x="1432" 
d="M317 0h-178v1443h175l790 -1133h9v1133h178v-1443h-175l-790 1129h-9v-1129zM797 1559h-135l181 290h196z" />
    <glyph glyph-name="nacute" unicode="&#x144;" horiz-adv-x="1079" 
d="M112 0v1040h164v-166h4q43 84 126 134t204 50q114 0 194.5 -46.5t123 -132.5t42.5 -204v-675h-174v644q0 126 -59.5 193t-179.5 67q-82 0 -143 -36.5t-94.5 -102t-33.5 -153.5v-612h-174zM610 1190h-135l178 300h191z" />
    <glyph glyph-name="Ncommaaccent" unicode="&#x145;" horiz-adv-x="1432" 
d="M317 0h-178v1443h175l790 -1133h9v1133h178v-1443h-175l-790 1129h-9v-1129zM660 -486h-132l108 359h158z" />
    <glyph glyph-name="ncommaaccent" unicode="&#x146;" horiz-adv-x="1079" 
d="M112 0v1040h164v-166h4q43 84 126 134t204 50q114 0 194.5 -46.5t123 -132.5t42.5 -204v-675h-174v644q0 126 -59.5 193t-179.5 67q-82 0 -143 -36.5t-94.5 -102t-33.5 -153.5v-612h-174zM486 -486h-132l108 359h158z" />
    <glyph glyph-name="Ncaron" unicode="&#x147;" horiz-adv-x="1432" 
d="M317 0h-178v1443h175l790 -1133h9v1133h178v-1443h-175l-790 1129h-9v-1129zM648 1551l-269 298h163l170 -192h6l170 192h163l-269 -298h-134z" />
    <glyph glyph-name="ncaron" unicode="&#x148;" horiz-adv-x="1079" 
d="M112 0v1040h164v-166h4q43 84 126 134t204 50q114 0 194.5 -46.5t123 -132.5t42.5 -204v-675h-174v644q0 126 -59.5 193t-179.5 67q-82 0 -143 -36.5t-94.5 -102t-33.5 -153.5v-612h-174zM608 1190h-134l-249 300h158l155 -189h6l155 189h158z" />
    <glyph glyph-name="Omacron" unicode="&#x14c;" horiz-adv-x="1498" 
d="M748 1467q153 0 276 -52t210 -149.5t133 -235t46 -309.5t-46 -309.5t-133 -235t-210 -149t-276 -51.5t-276 51.5t-210 149t-133 235t-46 309.5t46 309.5t133 235t210 149.5t276 52zM748 1301q-147 0 -255 -71t-166.5 -201t-58.5 -308q0 -177 58.5 -307t166.5 -201
t255 -71t255 71t166.5 201t58.5 307q0 178 -58.5 308t-166.5 201t-255 71zM1035 1768v-121h-574v121h574z" />
    <glyph glyph-name="omacron" unicode="&#x14d;" horiz-adv-x="1087" 
d="M543 -18q-108 0 -196.5 37.5t-152.5 107.5t-98.5 169.5t-34.5 223.5t34.5 223.5t98.5 170t152.5 107.5t196.5 37t196 -37t152 -107.5t98.5 -170t34.5 -223.5t-34.5 -223.5t-98.5 -169.5t-152 -107.5t-196 -37.5zM543 135q92 0 160.5 45t106 131.5t37.5 208.5t-37.5 208.5
t-106 131.5t-160.5 45t-160.5 -45t-106.5 -131.5t-38 -208.5t38 -208.5t106.5 -131.5t160.5 -45zM830 1385v-121h-574v121h574z" />
    <glyph glyph-name="Obreve" unicode="&#x14e;" horiz-adv-x="1498" 
d="M748 1467q153 0 276 -52t210 -149.5t133 -235t46 -309.5t-46 -309.5t-133 -235t-210 -149t-276 -51.5t-276 51.5t-210 149t-133 235t-46 309.5t46 309.5t133 235t210 149.5t276 52zM748 1301q-147 0 -255 -71t-166.5 -201t-58.5 -308q0 -177 58.5 -307t166.5 -201
t255 -71t255 71t166.5 201t58.5 307q0 178 -58.5 308t-166.5 201t-255 71zM427 1848h127q9 -91 62 -142.5t132 -51.5t132 51.5t62 142.5h127q-6 -82 -46 -151.5t-109.5 -112t-165.5 -42.5t-165.5 42.5t-109.5 112t-46 151.5z" />
    <glyph glyph-name="obreve" unicode="&#x14f;" horiz-adv-x="1087" 
d="M543 -18q-108 0 -196.5 37.5t-152.5 107.5t-98.5 169.5t-34.5 223.5t34.5 223.5t98.5 170t152.5 107.5t196.5 37t196 -37t152 -107.5t98.5 -170t34.5 -223.5t-34.5 -223.5t-98.5 -169.5t-152 -107.5t-196 -37.5zM543 135q92 0 160.5 45t106 131.5t37.5 208.5t-37.5 208.5
t-106 131.5t-160.5 45t-160.5 -45t-106.5 -131.5t-38 -208.5t38 -208.5t106.5 -131.5t160.5 -45zM231 1490h131q0 -92 47.5 -145t133.5 -53t133.5 53t47.5 145h131q0 -91 -37 -161t-106.5 -109.5t-168.5 -39.5t-169 39.5t-106.5 109.5t-36.5 161z" />
    <glyph glyph-name="Ohungarumlaut" unicode="&#x150;" horiz-adv-x="1498" 
d="M748 1467q153 0 276 -52t210 -149.5t133 -235t46 -309.5t-46 -309.5t-133 -235t-210 -149t-276 -51.5t-276 51.5t-210 149t-133 235t-46 309.5t46 309.5t133 235t210 149.5t276 52zM748 1301q-147 0 -255 -71t-166.5 -201t-58.5 -308q0 -177 58.5 -307t166.5 -201
t255 -71t255 71t166.5 201t58.5 307q0 178 -58.5 308t-166.5 201t-255 71zM956 1560h-133l177 289h187zM667 1560h-124l114 289h187z" />
    <glyph glyph-name="ohungarumlaut" unicode="&#x151;" horiz-adv-x="1087" 
d="M543 -18q-108 0 -196.5 37.5t-152.5 107.5t-98.5 169.5t-34.5 223.5t34.5 223.5t98.5 170t152.5 107.5t196.5 37t196 -37t152 -107.5t98.5 -170t34.5 -223.5t-34.5 -223.5t-98.5 -169.5t-152 -107.5t-196 -37.5zM543 135q92 0 160.5 45t106 131.5t37.5 208.5t-37.5 208.5
t-106 131.5t-160.5 45t-160.5 -45t-106.5 -131.5t-38 -208.5t38 -208.5t106.5 -131.5t160.5 -45zM744 1190h-133l177 300h187zM455 1190h-124l114 300h187z" />
    <glyph glyph-name="OE" unicode="&#x152;" horiz-adv-x="2216" 
d="M755 1301q-150 0 -259 -71t-168.5 -201t-59.5 -308q0 -177 59.5 -307t168.5 -201t259 -71q149 0 258 71t168.5 201t59.5 307t-59.5 307.5t-169 201.5t-257.5 71zM1244 0v228v0q-75 -120 -203 -186t-286 -66q-155 0 -279 51.5t-212 149t-134.5 235t-46.5 309.5t46.5 310
t134.5 235.5t212 149t279 51.5q161 0 287.5 -64.5t201.5 -183.5v0v224h874v-162h-694v-463h656v-160h-656v-496h694v-162h-874z" />
    <glyph glyph-name="oe" unicode="&#x153;" horiz-adv-x="1834" 
d="M1327 -18q-84 0 -159.5 26t-135 72t-95.5 108h-8q-65 -100 -160.5 -153t-226.5 -53q-147 0 -255 66.5t-167 187t-59 284.5t59 284.5t167 187t255 66.5q131 0 226.5 -55t160.5 -161h8q54 97 152.5 156.5t228.5 59.5q139 0 241 -64t157 -180.5t55 -273.5v-67h-745v-11
q0 -98 38 -172t106 -115.5t159 -41.5q64 0 117.5 21t90 58.5t51.5 85.5h171q-11 -67 -48 -124.5t-95 -100.5t-131.5 -67t-157.5 -24zM1591 609q-2 88 -37 155t-96.5 105t-142.5 38q-80 0 -143.5 -38t-101.5 -105.5t-44 -154.5h565zM238 520q0 -120 36.5 -206t104.5 -132.5
t163 -46.5t163.5 46.5t104.5 132.5t36 206t-36 206.5t-104.5 132.5t-163.5 46t-163.5 -46.5t-104.5 -132.5t-36 -206z" />
    <glyph glyph-name="Racute" unicode="&#x154;" horiz-adv-x="1227" 
d="M319 1283v-553h345q139 0 214.5 72t75.5 205q0 130 -79.5 203t-218.5 73h-337zM319 571v-571h-180v1443h541q139 0 242.5 -53.5t160.5 -150t57 -226.5q0 -101 -35 -184t-99.5 -142t-155.5 -88l334 -599h-211l-309 571v0h-345zM636 1559h-135l181 290h196z" />
    <glyph glyph-name="racute" unicode="&#x155;" horiz-adv-x="631" 
d="M112 0v1040h164v-170h4q25 86 93 137t159 51q23 0 41 -3t29 -4v-169q-11 4 -36 7t-57 3q-68 0 -118 -30.5t-77.5 -85t-27.5 -128.5v-648h-174zM423 1190h-135l178 300h191z" />
    <glyph glyph-name="Rcommaaccent" unicode="&#x156;" horiz-adv-x="1227" 
d="M319 1283v-553h345q139 0 214.5 72t75.5 205q0 130 -79.5 203t-218.5 73h-337zM319 571v-571h-180v1443h541q139 0 242.5 -53.5t160.5 -150t57 -226.5q0 -101 -35 -184t-99.5 -142t-155.5 -88l334 -599h-211l-309 571v0h-345zM499 -486h-132l108 359h158z" />
    <glyph glyph-name="rcommaaccent" unicode="&#x157;" horiz-adv-x="631" 
d="M113 0v1040h164v-170h4q25 86 93 137t159 51q23 0 41 -3t29 -4v-169q-11 4 -36 7t-57 3q-68 0 -118 -30.5t-77.5 -85t-27.5 -128.5v-648h-174zM145 -486h-132l108 359h158z" />
    </font>
</defs>
</svg>
